<?xml version="1.0" standalone="no"?>
<!DOCTYPE svg PUBLIC "-//W3C//DTD SVG 1.1//EN" "http://www.w3.org/Graphics/SVG/1.1/DTD/svg11.dtd" >
<svg xmlns="http://www.w3.org/2000/svg" xmlns:xlink="http://www.w3.org/1999/xlink" version="1.1">
<metadata>
Created by FontForge 20170731 at Fri Jun 24 18:09:51 2022
 By Aleksey,,,
</metadata>
<defs>
<font id="fredoka_oneregular" horiz-adv-x="1587" >
  <font-face 
    font-family="fredoka_oneregular"
    font-weight="400"
    font-stretch="normal"
    units-per-em="2048"
    panose-1="2 0 5 3 0 0 0 0 0 0"
    ascent="1638"
    descent="-410"
    x-height="1079"
    cap-height="1501"
    bbox="-270 -483 2300 1995"
    underline-thickness="0"
    underline-position="0"
    unicode-range="U+0009-2122"
  />
<missing-glyph horiz-adv-x="518" 
 />
    <glyph glyph-name=".notdef" horiz-adv-x="518" 
 />
    <glyph glyph-name=".null" horiz-adv-x="0" 
 />
    <glyph glyph-name="uni000D" unicode="&#xd;" horiz-adv-x="681" 
 />
    <glyph glyph-name="uniFB01" horiz-adv-x="1452" 
d="M31 897q0 168 121 168h67v109q0 158 112.5 285.5t325.5 127.5q47 0 71 -3t54 -19q55 -27 56 -158q0 -98 -35 -141q-29 -33 -90 -37h-58q-76 0 -75 -51v-113l133 12q141 0 166 -78q12 -39 12 -102t-13.5 -101t-41.5 -55q-43 -25 -125 -24l-131 8v-549q0 -78 -19.5 -115.5
t-59.5 -50t-103.5 -12.5t-101.5 13.5t-54.5 43t-19.5 54t-3 71.5v543h-74q-53 4 -75 25q-39 39 -39 149zM1012 180v719q0 47 3 70.5t17 54.5q29 53 160 53q98 0 139 -35q35 -29 37 -88q2 -20 2 -59v-717q0 -47 -3 -70.5t-19 -54.5q-27 -53 -158 -53q-129 0 -158 55
q-14 31 -17 53.5t-3 71.5zM1012 1405q0 47 3 70.5t17 52.5q29 55 160 55q129 0 156 -55q16 -31 19 -54.5t3 -70.5t-3 -70.5t-18.5 -53.5t-54.5 -42t-103.5 -12t-103 12t-54 43t-18.5 54.5t-3 70.5z" />
    <glyph glyph-name="space" unicode=" " horiz-adv-x="518" 
 />
    <glyph glyph-name="uni0009" unicode="&#x9;" horiz-adv-x="518" 
 />
    <glyph glyph-name="uni00A0" unicode="&#xa0;" horiz-adv-x="518" 
 />
    <glyph glyph-name="exclam" unicode="!" horiz-adv-x="546" 
d="M82 193q0 80 20.5 119.5t62.5 54t131 14.5t129 -39t40 -123v-33q0 -49 -3 -72.5t-20 -56.5q-33 -59 -156.5 -59t-163.5 40t-40 155zM92 698v650q0 43 3 64.5t19.5 48t55.5 37.5t104.5 11t104.5 -11t54.5 -38.5t18.5 -49t3 -64.5v-650q0 -43 -3 -63.5t-19.5 -46
t-55.5 -35.5t-104.5 -10t-104.5 10t-54.5 36.5t-18.5 47t-3 63.5z" />
    <glyph glyph-name="quotedbl" unicode="&#x22;" horiz-adv-x="878" 
d="M51 1300q0 129 35 162q43 39 113.5 39t106.5 -15.5t50 -47.5q18 -51 18.5 -168t-44.5 -303.5t-118 -186.5t-117 186.5t-44 333.5zM504 1300q0 158 69 187q35 14 93.5 14t93.5 -15.5t47 -47.5q20 -51 20 -168t-45 -303.5t-117.5 -186.5t-116.5 186.5t-44 333.5z" />
    <glyph glyph-name="numbersign" unicode="#" horiz-adv-x="1533" 
d="M31 429q0 32 7 74t32.5 72.5t48 34.5t67.5 4h133l37 226h-135q-88 0 -102 34q-6 18 -6 49t7 73t32.5 73t48 35t67.5 4h133l35 211q2 12 5 39.5t6.5 39t9.5 32t17 28.5t30 21q29 18 104.5 18t105 -21.5t29.5 -64.5q0 -6 -10 -72l-39 -231h305l35 211q2 12 5 39.5t6.5 39
t9.5 32t17 28.5t30 21q29 18 104.5 18t105 -21.5t29.5 -64.5q0 -6 -10 -72l-39 -231h105q39 0 56 -3t33.5 -21.5t16.5 -54.5t-7 -78t-31.5 -72.5t-47 -34.5t-67.5 -4h-103l-37 -226h105q39 0 56.5 -3t33.5 -21.5t16 -54t-6 -70.5t-19.5 -63.5t-35.5 -41.5q-33 -16 -92 -16
h-103q-20 -127 -24 -158l-4 -22q-8 -45 -13.5 -63.5t-21.5 -45.5q-33 -47 -152 -47t-119 76q0 2 17 106l24 154h-305q-20 -127 -24 -158l-4 -22q-8 -45 -13.5 -63.5t-21.5 -45.5q-33 -47 -152 -47t-119 76q0 2 17 106l24 154h-135q-86 0 -102 37q-6 16 -6 48zM612 614h306
l36 226h-303z" />
    <glyph glyph-name="dollar" unicode="$" horiz-adv-x="972" 
d="M51 381q0 41 70 108q41 39 87 39t128 -82q63 -78 143 -77q152 0 152 125q0 45 -57.5 69.5t-139.5 44t-164 52t-139 112.5t-57 203t77.5 221t215.5 127v115q0 70 12 100q20 49 108 49q55 0 83 -23.5t32 -50t4 -77.5v-115q57 -12 104.5 -34.5t65.5 -37.5l19 -16l8 -6
q51 -47 51 -78t-48 -102.5t-106 -71.5q-37 0 -62.5 18.5t-39.5 30.5t-27 20q-35 23 -88 23t-88 -25.5t-35 -70.5t42 -73t103.5 -37t135.5 -30.5t135.5 -50t103.5 -101t42 -181.5q0 -160 -92.5 -256.5t-223.5 -126.5v-131q0 -72 -13 -100.5t-39 -39t-69 -10.5t-68.5 10.5
t-35.5 36.5q-14 35 -14 105v127q-84 18 -152 61t-94 76l-27 35q-43 55 -43 96z" />
    <glyph glyph-name="percent" unicode="%" horiz-adv-x="1716" 
d="M82 1123q0 175 92 279.5t256 104.5t253 -102t89 -282.5t-89 -280t-250 -99.5t-256 102.5t-95 277.5zM303 1125.5q0 -72.5 31 -104.5t92 -32q123 0 123 137q0 74 -28.5 105t-93.5 31t-94.5 -32t-29.5 -104.5zM377 14.5q0 24.5 14 48.5l791 1496q27 47 52.5 47t74.5 -27
t49 -57q0 -14 -15 -39l-792 -1497l-4 -6q-23 -41 -47.5 -41t-73.5 25.5t-49 50zM944 378q0 175 92 279.5t257 104.5t253 -102.5t88 -283.5t-88 -280.5t-249.5 -99.5t-257 103.5t-95.5 278.5zM1167 379q0 -74 30 -105.5t91 -31.5q125 0 125 139q0 74 -29.5 104.5t-94 30.5
t-93.5 -31.5t-29 -105.5z" />
    <glyph glyph-name="ampersand" unicode="&#x26;" horiz-adv-x="1531" 
d="M51 422q0 227 236 422q-82 182 -82 330q0 205 123 303t329.5 98t313 -98.5t106.5 -268.5q0 -143 -116 -258q-86 -86 -242 -190q121 -160 262 -271q57 88 80 181q20 90 184 90q70 0 105.5 -18.5t41 -38t3.5 -50.5q-8 -156 -127 -309q31 -6 57 -6q160 0 160 -162
q0 -113 -37 -145.5t-125 -32.5q-178 0 -352 92q-195 -106 -393 -106q-526 0 -527 438zM412 426q0 -139 180 -139q51 0 92 8q-119 106 -225 254q-47 -59 -47 -123zM528 1198q0 -74 35 -166q96 61 144.5 102.5t48.5 77.5q0 90 -101 91q-127 -1 -127 -105z" />
    <glyph glyph-name="quotesingle" unicode="'" horiz-adv-x="425" 
d="M51 1300q0 129 35 162q43 39 113.5 39t106.5 -15.5t50 -47.5q18 -51 18.5 -168t-44.5 -303.5t-118 -186.5t-117 186.5t-44 333.5z" />
    <glyph glyph-name="parenleft" unicode="(" horiz-adv-x="786" 
d="M61 557q0 358 127 672q66 160 178.5 259t258.5 99q61 0 88 -14q43 -27 43 -119q0 -96 -37 -115q-29 -16 -84 -16h-12q-80 0 -164 -182q-39 -88 -64.5 -240.5t-25.5 -341t24.5 -340t62.5 -241t82 -135.5t82.5 -46t56 -2t39 -14t31 -41t9.5 -76t-9.5 -74.5t-31.5 -40.5
q-35 -16 -92 -16q-139 0 -251 97.5t-177 250.5q-133 315 -134 676z" />
    <glyph glyph-name="parenright" unicode=")" horiz-adv-x="786" 
d="M31 -336q0 47 9 76t30.5 41t39 14t56.5 2t83 46t83 137q86 203 86 581q0 186 -25.5 339t-64.5 241q-84 182 -164 182h-12q-55 0 -80 12q-41 23 -41 114t32.5 114.5t98.5 23.5q145 0 257.5 -99t178.5 -259q127 -313 127 -672q0 -360 -133 -676q-66 -154 -177.5 -251
t-250.5 -97q-104 0 -123 57q-10 27 -10 74z" />
    <glyph glyph-name="asterisk" unicode="*" horiz-adv-x="1030" 
d="M31 1096q0 37 14 82q45 135 119 135q29 0 56 -9l26 -10l104 -32v106q0 70 17.5 102.5t53.5 43t95 10.5t95 -11.5t51 -37.5q20 -39 20 -117v-96l100 32q66 20 86 21q72 0 115 -129q16 -55 16 -89t-20.5 -60.5t-43 -37t-67.5 -26.5l-86 -27l68 -94l16 -25q27 -45 27 -67
q0 -59 -80 -116.5t-114.5 -57.5t-57.5 14q-31 20 -66 70l-59 82l-76 -103q-45 -68 -91 -67.5t-129 59.5t-83 117q0 35 43 94l68 94l-86 27q-74 14 -111 59q-20 27 -20 64z" />
    <glyph glyph-name="plus" unicode="+" horiz-adv-x="1079" 
d="M51 561q0 57 11.5 93t39.5 51q39 18 113 18h164v166q0 72 16.5 104.5t52 44t93 11.5t93.5 -11.5t50 -38.5q18 -39 18 -112v-164h166q72 0 105 -17.5t44 -52.5t11 -93t-10 -93t-35 -49q-37 -18 -104 -19h-177v-166q0 -72 -17 -104.5t-52 -43.5t-93.5 -11t-93 11t-49.5 38
q-18 39 -18 113v163h-178q-68 0 -98.5 16.5t-41 52.5t-10.5 93z" />
    <glyph glyph-name="comma" unicode="," horiz-adv-x="487" 
d="M52 161q1 81 4 104.5t20.5 56t58.5 46t131 13.5t130 -40t40 -155q0 -43 -6 -80q-18 -174 -114.5 -303t-225.5 -129q-14 0 -25.5 21.5t-11.5 55.5t9.5 54.5t23.5 25.5t29.5 16.5t42 54.5t30.5 98q-66 8 -101.5 44t-34.5 117z" />
    <glyph glyph-name="hyphen" unicode="-" horiz-adv-x="886" 
d="M51 448.5q0 57.5 12.5 92t38.5 49.5q37 18 99 18h487q115 0 135 -67q12 -37 12.5 -94.5t-11 -93.5t-36.5 -50q-36 -18 -102 -18h-487q-115 0 -138 69q-10 37 -10 94.5z" />
    <glyph glyph-name="period" unicode="." horiz-adv-x="485" 
d="M51 184v9q0 47 3 71.5t20 54.5q31 61 154.5 61.5t170.5 -42.5q35 -35 35 -143v-9q0 -49 -3 -72.5t-21 -56.5q-31 -59 -155 -59t-164 39t-40 147z" />
    <glyph glyph-name="slash" unicode="/" horiz-adv-x="1077" 
d="M31 22.5q0 28.5 24 102.5l660 1378q39 78 69 90q16 8 48 8.5t104 -32.5q111 -53 111 -117q0 -27 -29 -102l-658 -1366q-16 -35 -25 -51.5t-30.5 -32t-56.5 -15.5t-102.5 31t-91 54.5t-23.5 52z" />
    <glyph glyph-name="zero" unicode="0" horiz-adv-x="1245" 
d="M51 750q0 205 48 350t107.5 228t167 139.5t249 56.5t247 -55.5t166 -137.5t97.5 -192q61 -184 61 -391q0 -371 -160 -588q-59 -82 -164.5 -135.5t-245 -53.5t-247 54.5t-167.5 134.5t-99 190q-59 176 -60 400zM414 748.5q0 -412.5 207 -412.5q211 0 210 401v13
q0 412 -208.5 411.5t-208.5 -413z" />
    <glyph glyph-name="one" unicode="1" horiz-adv-x="833" 
d="M31 1022q0 55 73 121l336 303l6 4q53 53 116 53t97.5 -10t53 -23.5t28.5 -44.5q10 -35 11 -108v-1141q0 -47 -3.5 -70.5t-19.5 -54.5q-29 -55 -160 -55q-127 0 -157 53q-16 31 -19.5 56.5t-3.5 74.5v731l-27 -24q-84 -63 -143 -63.5t-123.5 71.5t-64.5 127z" />
    <glyph glyph-name="two" unicode="2" horiz-adv-x="1247" 
d="M51 180q0 111 77 204t185.5 159.5t217 131t185.5 146.5t77 174q0 18 -14.5 52t-32 55.5t-54.5 40t-102.5 18.5t-113.5 -48t-54 -95l-8 -47v-13q0 -45 -3 -67.5t-20 -50.5q-31 -49 -160 -49q-143 0 -170 77q-10 33 -10 105q0 213 152.5 382t399.5 169t400.5 -171
t153.5 -390q0 -117 -51 -221.5t-123 -168.5q-152 -135 -270 -182l-51 -20v-11h374q84 0 120 -19t48.5 -59t12.5 -104.5t-13.5 -103.5t-44.5 -54q-45 -25 -127 -24h-801q-74 0 -127 55t-53 129z" />
    <glyph glyph-name="three" unicode="3" horiz-adv-x="1245" 
d="M51 446q0 119 201 119q82 0 108 -20q35 -27 62 -107q20 -66 113 -98q39 -12 86 -12q109 0 159.5 44t50.5 99t-50 97t-118.5 42t-93 4t-53.5 21q-55 27 -55 158q0 143 76 170q35 10 106 10q156 0 156 80q0 43 -41 82t-114 39t-116 -25t-53 -49l-12 -25q-47 -102 -135 -102
q-51 0 -113 37q-102 59 -102 137q0 33 47 139q8 18 45 64.5t85 81t135 63.5t193 29q252 0 397.5 -143.5t145.5 -322.5t-160 -259v-15q20 -10 60.5 -43.5t64.5 -66.5q68 -86 68 -197q0 -219 -164 -361.5t-412 -142.5q-246 0 -409 144q-61 55 -109 145q-16 33 -22 53l-4 21
q-23 68 -23 110z" />
    <glyph glyph-name="four" unicode="4" horiz-adv-x="1212" 
d="M31 600q0 55 6 82l170 686q12 47 21.5 71.5t37 47t70.5 22.5t94 -14q143 -39 143 -131q0 -33 -14 -86q-2 -4 -2 -6l-125 -500h334v559q0 47 3 69.5t19.5 51.5t56.5 40t104.5 11t103.5 -13t55 -43t19 -54.5t3 -71.5v-1139q0 -80 -19 -117.5t-59 -50t-99.5 -12.5
t-94.5 10.5t-53.5 24.5t-26.5 41q-12 35 -12 106v250h-555q-143 0 -170 78q-10 33 -10 88z" />
    <glyph glyph-name="five" unicode="5" horiz-adv-x="1085" 
d="M31 244q0 55 75 133q61 68 119 67.5t137 -65.5q37 -43 128.5 -43t135.5 39t44 107.5t-48.5 108.5t-109.5 40t-98 -37q-55 -47 -111.5 -47t-129.5 39t-95.5 62.5t-22.5 50t41 329.5t43 315.5t14.5 43t30 55t53 44t82.5 19.5l312 -2h192q49 0 72 -3t53 -19q55 -29 56 -164
q0 -123 -52 -150q-29 -16 -50 -19t-66 -3h-359q-4 -25 -20 -156q23 4 71 4q195 0 350.5 -146.5t155.5 -358.5t-147.5 -364.5t-366.5 -152.5q-190 0 -344 97q-35 23 -51 38l-16 15q-78 68 -78 123z" />
    <glyph glyph-name="six" unicode="6" horiz-adv-x="1146" 
d="M51 586q0 391 222.5 653t607.5 262q78 0 113.5 -19.5t48 -58.5t12.5 -98t-10.5 -94t-24.5 -53.5t-41 -26.5q-35 -12 -119 -12t-163 -29t-124 -70q-90 -84 -110 -151l-10 -29q76 35 151 35q203 0 347.5 -134t144.5 -302q0 -207 -148.5 -346.5t-359.5 -139.5
q-266 0 -401.5 171t-135.5 442zM424 461q0 -39 5 -59.5t20 -45.5q29 -47 131 -47q158 0 157 137q0 47 -35.5 88t-114.5 41t-121 -37.5t-42 -76.5z" />
    <glyph glyph-name="seven" unicode="7" horiz-adv-x="1148" 
d="M31 1318.5q0 63.5 12 102.5t39 54q43 25 119 24h737q143 0 168 -78q12 -33 12 -114.5t-53 -203.5t-128 -241t-151 -239q-180 -293 -180 -471q0 -45 -4 -67t-20.5 -45.5t-54.5 -31.5t-103.5 -8t-103 8t-54 33t-19.5 46.5t-3 68.5q0 133 45 273t108.5 251t127 204
t108.5 159.5t45 93.5h-467q-82 0 -119 20.5t-49 59t-12 102z" />
    <glyph glyph-name="eight" unicode="8" horiz-adv-x="1191" 
d="M51 481q0 86 42 167t83 118l43 39q-14 12 -34.5 32.5t-54.5 89t-34 142.5q0 201 151.5 332t352.5 131t348.5 -133t147.5 -340q0 -61 -30 -125t-60 -96l-31 -33q18 -14 46 -42t74 -112t46 -170q0 -229 -167 -369.5t-378 -140.5t-378 139.5t-167 370.5zM414 473
q0 -57 47 -106.5t137 -49.5t135 49.5t45 105.5t-46 105.5t-135 49.5t-136 -48.5t-47 -105.5zM461 1072q0 -42 35.5 -79t102.5 -37t100.5 37t33.5 78t-34.5 77t-103.5 36t-101.5 -35t-32.5 -77z" />
    <glyph glyph-name="nine" unicode="9" horiz-adv-x="1146" 
d="M51 1040q0 207 147.5 346.5t358.5 139.5q268 0 403.5 -171t135.5 -442q0 -391 -221.5 -653t-604.5 -262h-12q-78 0 -111 20q-57 35 -57 162q0 143 78 168q35 12 119 12t162.5 29t121.5 70q88 84 113 151l10 29q-78 -35 -153 -35q-201 0 -345.5 134t-144.5 302zM408 1053
q0 -47 35.5 -88t115.5 -41t122 37.5t42 75.5t-5 59.5t-22 46.5q-31 47 -131 47q-158 0 -157 -137z" />
    <glyph glyph-name="colon" unicode=":" horiz-adv-x="487" 
d="M51 193q0 119 43 151q51 37 156.5 37t145.5 -40t40 -155q-2 -49 -5 -72.5t-21 -56.5q-31 -59 -155 -59t-164 40t-40 155zM51 846q0 119 43 151q51 37 156.5 37t145.5 -41t40 -153q-2 -49 -5 -73t-21 -56q-31 -59 -155 -59.5t-164 39.5t-40 155z" />
    <glyph glyph-name="semicolon" unicode=";" horiz-adv-x="485" 
d="M51 184v9q0 47 3 71.5t20 54.5q31 61 154.5 61.5t170.5 -42.5q35 -35 35 -143v-9q0 -225 -119 -385q-96 -129 -225 -129q-14 0 -25.5 21.5t-11.5 56.5t9.5 54.5t23.5 24.5t28.5 16.5t42 55.5t31.5 99q-68 8 -102.5 42t-34.5 142zM51 838v8q0 47 3 71.5t20 57.5
q31 59 154.5 59t170.5 -43q35 -37 35 -143v-8q0 -49 -3 -73t-21 -56q-31 -59 -155 -59.5t-164 38.5t-40 148z" />
    <glyph glyph-name="less" unicode="&#x3c;" horiz-adv-x="1284" 
d="M31 704.5q0 102.5 82 143.5q702 416 806.5 479.5t124.5 69.5q23 10 54 10q55 0 114 -100q39 -63 39 -95t-14 -55q-18 -33 -84 -76q-610 -360 -635 -376l635 -377q39 -23 55 -37q45 -37 45 -80q0 -41 -35.5 -99.5t-64.5 -83t-59 -24.5q-41 0 -107 39l-876 520
q-80 39 -80 141.5z" />
    <glyph glyph-name="equal" unicode="=" horiz-adv-x="978" 
d="M51 241q0 54 11.5 87.5t35.5 46.5q39 18 97 18h591q106 0 127 -65q12 -33 12.5 -88.5t-10 -89t-35 -47t-42 -15.5t-54.5 -2h-591q-109 0 -132 66q-10 35 -10 89zM53.5 675q-0.5 54 11 88t35.5 46q37 18 95 18h591q109 0 132 -65q10 -33 10 -88.5t-10.5 -89t-35 -47
t-42 -15.5t-56.5 -2h-591q-106 0 -127 66q-12 35 -12.5 89z" />
    <glyph glyph-name="greater" unicode="&#x3e;" horiz-adv-x="1284" 
d="M29 200.5q0 30.5 12 53.5q23 35 88 74l637 377l-635 376q-37 23 -55 37q-45 39 -45 84q0 41 35 98q63 106 118 107q49 0 111 -39l874 -520q82 -41 82 -143.5t-80 -141.5l-874 -520q-104 -68 -168 -14q-29 25 -59 73q-41 68 -41 98.5z" />
    <glyph glyph-name="question" unicode="?" horiz-adv-x="1048" 
d="M31 1147q0 31 12 62.5t20.5 53t44 75t82 93t130 73.5t186.5 34q217 0 354 -139t137 -324q0 -88 -31.5 -162.5t-76.5 -117.5q-90 -86 -168 -115l-33 -10q0 -35 -3 -53.5t-18.5 -40t-51 -30.5t-95 -9t-95.5 10t-50.5 34.5t-17.5 44t-3 60.5l2 16q0 88 50.5 139.5t109.5 68
t109.5 55.5t50.5 105.5t-38 103t-113.5 36.5t-111.5 -23.5t-44 -47.5l-7 -25q-18 -53 -42.5 -80.5t-63.5 -27.5t-102 24q-123 47 -123 117zM324 160v33q0 47 3 71.5t19 56t58 46t132.5 14.5t130.5 -40t40 -155q0 -82 -20.5 -121.5t-62.5 -53t-130 -13.5t-136 43
q-35 35 -34 119z" />
    <glyph glyph-name="at" unicode="@" horiz-adv-x="1859" 
d="M51 553q0 250 119 439.5t308.5 282.5t397 93t370.5 -50t290 -149.5t199.5 -260t72.5 -340t-49 -303.5t-129 -197q-162 -152 -356 -152q-135 0 -225.5 82t-90.5 223q0 16 5 49q-68 -74 -187 -73.5t-212 101.5t-93 245q0 182 135 308t261 126t175 -82q10 41 40 62.5
t98.5 21.5t94 -21.5t25.5 -49t-4 -60.5l-69 -524q-14 -84 -14.5 -109t15 -34t48.5 -9t63.5 8t70.5 34t71 67q74 98 73.5 262t-53.5 272.5t-145 171.5q-188 127 -453.5 127t-430.5 -150.5t-165 -408.5t128 -411.5t396 -153.5h39q49 0 68.5 -23.5t19.5 -87t-9 -91.5t-31 -38
q-29 -16 -89 -16q-360 0 -569 222t-209 597zM733 571q0 -47 33 -80.5t86 -33.5t95 40t48 89v12q0 47 -29.5 83t-87 36t-98.5 -40t-47 -91v-15z" />
    <glyph glyph-name="A" unicode="A" horiz-adv-x="1566" 
d="M31 147q0 35 35 105l552 1145q23 47 69 75.5t97 28.5q111 0 164 -106l553 -1143q35 -70 35 -105q0 -74 -119 -133q-69 -35 -108 -35l-1 1q-40 0 -65.5 18t-37 38.5t-31.5 61.5l-107 221h-567l-107 -221q-20 -41 -31.5 -59.5t-37 -37.5t-65.5 -19t-109 34
q-119 57 -119 131zM647 623h273l-138 280z" />
    <glyph glyph-name="B" unicode="B" horiz-adv-x="1323" 
d="M82 186v1137q0 49 3 71.5t19 53.5q29 55 160 55h516q188 0 316 -131q133 -133 133 -319q0 -135 -78 -248q121 -143 121 -322q-4 -205 -140.5 -343t-330.5 -138h-539q-143 0 -168 78q-12 35 -12 106zM444 365h336q129 0 129 139q0 49 -11 77.5t-38 41.5q-41 16 -114.5 16
t-110.5 28.5t-37 117.5t38 118t126 29q82 0 98 43q6 23 6 74t-33.5 71.5t-101.5 20.5h-287v-776z" />
    <glyph glyph-name="C" unicode="C" horiz-adv-x="1390" 
d="M51 758q0 160 53.5 290t136.5 215t189 142q201 111 404 111q96 0 195 -30t151 -61l49 -28q37 -23 57 -37q53 -43 53 -97.5t-43 -113.5q-80 -111 -143 -111q-37 0 -104 45q-86 70 -230 70q-133 0 -262 -92q-61 -45 -102 -127t-41 -185.5t41 -185.5t104 -129
q125 -90 260 -90q63 0 119.5 16.5t81.5 32.5l37 27q70 41 98 41q63 0 137 -115q45 -72 45 -115t-27.5 -71.5t-64.5 -51t-70.5 -43t-138 -53t-202 -32.5t-196.5 25.5t-204.5 86t-189.5 147.5t-138.5 223t-54.5 296z" />
    <glyph glyph-name="D" unicode="D" horiz-adv-x="1441" 
d="M82 184v1139q0 49 3 71.5t19 53.5q29 55 160 55l379 -2q297 0 522.5 -214t225.5 -526t-220.5 -535.5t-533.5 -223.5h-375q-125 0 -156 51q-24 41 -24 124v7zM444 365h199q148 0 266.5 109.5t118.5 275t-115.5 277.5t-271.5 112h-197v-774z" />
    <glyph glyph-name="E" unicode="E" horiz-adv-x="1306" 
d="M82 182v1139q0 104 39 142t147 38h807q47 0 70.5 -3t54.5 -19q55 -29 55 -160q0 -143 -75 -168q-35 -12 -107 -12h-629v-207h406q47 0 70.5 -3t54.5 -20q55 -29 55 -159q0 -143 -78 -168q-35 -12 -106 -13h-402v-207h631q47 0 70.5 -3t54.5 -19q55 -29 55 -160
q0 -143 -75 -168q-35 -12 -107 -12h-811q-143 0 -168 78q-12 33 -12 104z" />
    <glyph glyph-name="F" unicode="F" horiz-adv-x="1304" 
d="M82 182v1139q0 104 39 142t147 38h807q47 0 70.5 -3t53.5 -19.5t42 -55.5t12 -104.5t-12 -104t-43 -54t-54.5 -18.5t-72.5 -3h-627v-207h404q49 0 72.5 -3t54.5 -20q53 -31 53 -161q0 -143 -78 -170q-33 -10 -104 -11h-402v-387q0 -49 -3 -71.5t-19 -53.5
q-29 -55 -160 -55q-143 0 -168 78q-12 33 -12 104z" />
    <glyph glyph-name="G" unicode="G" horiz-adv-x="1462" 
d="M51 766q0 326 229.5 544t540.5 218q242 0 457 -160q55 -41 55 -91t-47 -116q-79 -108 -144 -108h-1q-39 0 -125 56t-205 56q-156 0 -276.5 -109.5t-120.5 -286.5t122.5 -301t278.5 -124q113 0 203 37v223h-162q-63 0 -90 16.5t-35 48t-8 86t9 87t34 45.5q37 18 98 18h361
q111 -4 135 -57q20 -39 20 -115v-450q0 -66 -57 -125q-172 -178 -516 -178q-305 0 -530.5 230t-225.5 556z" />
    <glyph glyph-name="H" unicode="H" horiz-adv-x="1431" 
d="M82 184v1137q0 47 3 70.5t19 54.5q29 55 160 55q143 0 170 -76q10 -35 10 -106v-418h543v420q0 47 3 70.5t19.5 54.5t55.5 43t98.5 12t94 -10t53 -24.5t28.5 -41.5q10 -35 11 -106v-1137q0 -47 -3.5 -70.5t-19.5 -54.5q-29 -55 -160 -55q-143 0 -168 76q-12 35 -12 106
v416h-543v-418q0 -47 -3 -70.5t-19 -54.5q-29 -55 -160 -55q-143 0 -168 76q-12 35 -12 106z" />
    <glyph glyph-name="I" unicode="I" horiz-adv-x="526" 
d="M82 182v1139q0 47 3 70.5t19 54.5q29 55 160 55q143 0 170 -76q10 -35 10 -106v-1139q0 -49 -3 -71.5t-19 -53.5q-29 -55 -160 -55q-143 0 -168 78q-12 33 -12 104z" />
    <glyph glyph-name="J" unicode="J" horiz-adv-x="1124" 
d="M102 406q72 73 127.5 73t123 -67.5t146.5 -67.5t130 53.5t51 141.5v766q0 123 41 157q47 39 127 39t118 -13t54 -44q22 -45 22 -120v-7v-793q0 -215 -155.5 -379.5t-397.5 -164.5q-135 0 -239 59q-94 51 -131 92l-17 16q-72 75 -72 130q0 54 72 129z" />
    <glyph glyph-name="K" unicode="K" horiz-adv-x="1308" 
d="M82 182v1139q0 47 3 70.5t19 54.5q29 55 160 55q143 0 170 -76q10 -35 10 -106v-391q279 313 451 514q72 84 125 84t135 -71t82 -123t-61 -124q-119 -137 -369 -377l-82 -77q313 -301 444 -453q68 -76 68 -128t-82 -122.5t-134 -70.5t-126 86l-451 514v-400
q0 -49 -3 -71.5t-19 -53.5q-29 -55 -160 -55q-143 0 -168 78q-12 33 -12 104z" />
    <glyph glyph-name="L" unicode="L" horiz-adv-x="1202" 
d="M82 182v1139q0 47 3 70.5t19 54.5q29 55 160 55q143 0 170 -76q10 -35 10 -106v-1016h557q68 0 98.5 -15.5t41 -48t10.5 -87t-10.5 -87t-34.5 -45.5q-39 -20 -107 -20h-737q-143 0 -168 78q-12 33 -12 104z" />
    <glyph glyph-name="M" unicode="M" horiz-adv-x="1781" 
d="M82 184v1137q0 47 3 70.5t19 54.5q31 53 160 53q55 0 95 -13t53 -28l12 -12l465 -610q348 461 465 608q35 55 164.5 55t158.5 -55q16 -31 19.5 -55.5t3.5 -71.5v-1137q0 -141 -78 -166q-39 -12 -98.5 -12t-94 10.5t-53 24.5t-28.5 41q-10 35 -11 106v686
q-51 -63 -149 -201.5t-125 -173t-37 -48t-50 -37t-86 -23.5t-84 21.5t-54 42.5l-17 22q-41 51 -161.5 218t-131.5 179v-690q0 -47 -3 -70.5t-19 -52.5q-31 -55 -160 -55q-125 0 -156 55q-16 29 -19 53.5t-3 73.5z" />
    <glyph glyph-name="N" unicode="N" horiz-adv-x="1474" 
d="M82 182v1143q0 78 19.5 114t58.5 48t100.5 12t97 -11t50.5 -26q8 -6 47 -53q432 -588 577 -776v692q0 78 19.5 114t58.5 48t97.5 12t94 -10t53 -24.5t25.5 -43.5q12 -33 13 -104v-1137q0 -49 -3.5 -71.5t-19.5 -53.5q-29 -55 -160 -55q-80 0 -110.5 12.5t-50.5 38.5
q-461 614 -607 803v-674q0 -49 -3 -71.5t-19 -53.5q-29 -55 -160 -55q-127 0 -156 55q-16 31 -19 55.5t-3 71.5z" />
    <glyph glyph-name="O" unicode="O" 
d="M51 737q0 170 61.5 318.5t164 249t235.5 158t274 57.5q303 0 526.5 -219.5t223.5 -544t-213 -553t-524.5 -228.5t-529.5 225.5t-218 536.5zM414 747.5q0 -182.5 117.5 -296t263 -113.5t262.5 110.5t117 297t-118 299t-263.5 112.5t-262 -113.5t-116.5 -296z" />
    <glyph glyph-name="P" unicode="P" horiz-adv-x="1294" 
d="M82 184v1137q0 47 3 70.5t19 54.5q29 55 160 55h438q180 0 351 -131q84 -63 137 -171.5t53 -242t-53 -241t-137 -170.5q-170 -131 -353 -131h-256v-232q0 -47 -3 -70.5t-19 -54.5q-29 -55 -160 -55q-143 0 -168 76q-12 35 -12 106zM444 776h258q62 0 121.5 45t59.5 135.5
t-59.5 136.5t-123.5 46h-256v-363z" />
    <glyph glyph-name="Q" unicode="Q" horiz-adv-x="1699" 
d="M51 737q0 170 61.5 318.5t164 249t235.5 158t274 57.5q303 0 526.5 -219.5t223.5 -555.5q0 -169 -76 -337q94 -63 135 -93q74 -55 74 -105t-61.5 -140t-124.5 -90q-39 0 -119 55q-10 6 -57 38.5t-74 49.5q-190 -147 -428 -148q-317 0 -535.5 225.5t-218.5 536.5z
M414 747.5q0 -182.5 117.5 -296t263 -113.5t262.5 110.5t117 297t-118 299t-263.5 112.5t-262 -113.5t-116.5 -296z" />
    <glyph glyph-name="R" unicode="R" horiz-adv-x="1292" 
d="M82 184v1137q0 47 3 70.5t19 54.5q29 55 160 55h443q180 0 350 -131q82 -63 135 -171.5t53 -242.5q0 -231 -153 -381q45 -108 139 -321q31 -74 31 -107q0 -78 -127 -131q-65 -29 -105 -29l-1 1q-40 0 -65.5 19.5t-37.5 39.5q-20 39 -160 371l-64 -4h-258v-232
q0 -47 -3 -70.5t-19 -54.5q-29 -55 -160 -55q-143 0 -168 76q-12 35 -12 106zM444 776h263q59 0 118.5 45t59.5 135.5t-59.5 136.5t-123.5 46h-258v-363z" />
    <glyph glyph-name="S" unicode="S" horiz-adv-x="1193" 
d="M51 329q0 52 88 138q51 49 108.5 49t160.5 -102q29 -35 82 -67t98 -32q190 0 190 156q0 47 -52 79t-130 46t-168 46t-168 75t-130 136t-52 224q0 180 134 314.5t366 134.5q123 0 224 -32t140 -64l51 -39q64 -59 64 -101q0 -41 -49 -112q-70 -102 -144 -103q-43 0 -106 41
q-6 4 -23.5 20.5t-32.5 26.5q-43 27 -109.5 27t-110.5 -32t-44 -88t52.5 -91t130 -47t170 -38t170 -62.5t130 -128t52.5 -224.5t-53.5 -234.5t-139.5 -156.5q-164 -108 -351 -108h-3q-96 0 -182 23.5t-140 57.5q-109 66 -151 127l-19 23q-53 66 -53 118z" />
    <glyph glyph-name="T" unicode="T" horiz-adv-x="1497" 
d="M31 1356q0 53 10 85t35 44q36 18 104 18h1139q66 0 96.5 -15t40.5 -48t10 -86.5t-10 -85t-35 -43.5q-37 -18 -104 -19h-391v-1030q0 -47 -3 -69.5t-18.5 -52t-54.5 -42t-102.5 -12.5t-101.5 12.5t-53 42t-18.5 53t-3.5 70.5v1028h-393q-66 0 -96.5 15.5t-40.5 48.5
t-10 86z" />
    <glyph glyph-name="U" unicode="U" horiz-adv-x="1486" 
d="M82 705v616q0 49 3 72.5t19.5 54.5t55.5 43t104.5 12t104.5 -12t53 -43q24 -45 24 -123v-6v-614q0 -125 62 -238q31 -57 92.5 -92t144.5 -35q150 0 223.5 110.5t73.5 256.5v626q0 80 20.5 113t59.5 45t97.5 12t93.5 -10t53 -24.5t27 -43.5q12 -35 12 -106v-619
q0 -270 -168 -491q-82 -104 -211 -169t-285.5 -65t-284.5 65.5t-208 172.5q-166 217 -166 492z" />
    <glyph glyph-name="V" unicode="V" horiz-adv-x="1603" 
d="M31 1348q0 72 121 131q67 35 102 35h2q36 0 54 -8.5t34 -28.5q18 -25 33.5 -54.5t79 -170t136.5 -298t137.5 -298t72.5 -156.5l409 897q16 39 29 61q37 56 90 56h1q52 0 120 -35q121 -59 121 -131q0 -33 -31 -99l-565 -1147q-23 -45 -69 -72.5t-95 -27.5h-20
q-51 0 -97.5 27.5t-68.5 72.5l-566 1147q-31 66 -30 99z" />
    <glyph glyph-name="W" unicode="W" horiz-adv-x="2045" 
d="M31 1362q0 82 137 129q59 20 107.5 20t74 -32.5t45.5 -100.5l226 -684l223 674q29 86 104 119q33 14 85 14t97.5 -33.5t57.5 -66.5l235 -711l226 688q16 47 26.5 69.5t38 44t68.5 21.5t96 -20q137 -49 137 -131q0 -27 -24 -100l-394 -1137q-4 -14 -14 -34.5t-54 -54.5
t-104.5 -34t-104.5 34t-58 66l-240 707q-227 -672 -231.5 -684t-18.5 -34.5t-33 -41.5q-47 -47 -112.5 -47t-107.5 30.5t-56 61.5l-14 31l-396 1137q-23 68 -22 100z" />
    <glyph glyph-name="X" unicode="X" horiz-adv-x="1517" 
d="M110 1468q80 72 134.5 72t126.5 -82l389 -446l389 446q74 82 126 82t132 -71.5t80 -127t-70 -129.5l-411 -452l411 -453q70 -78 70 -131t-79 -124.5t-133 -71.5t-126 81l-389 447l-389 -447q-74 -82 -125 -82l-1 1q-52 0 -133 72.5t-81 123.5t71 131l412 453l-412 452
q-72 75 -72 129t80 127z" />
    <glyph glyph-name="Y" unicode="Y" horiz-adv-x="1404" 
d="M31 1337q0 66 90 126.5t129 60.5t61 -17q35 -23 74 -84l317 -508l318 508q39 61 67.5 81t66.5 20t120 -51q100 -70 100 -136q0 -39 -47 -108l-442 -662v-391q0 -47 -3 -70.5t-19.5 -54.5t-55.5 -43t-104.5 -12t-104.5 12t-55.5 44t-19.5 55.5t-3 72.5v387l-442 662
q-47 70 -47 108z" />
    <glyph glyph-name="Z" unicode="Z" horiz-adv-x="1316" 
d="M51 182q0 53 25 86l635 879h-471q-49 0 -73 3t-56 17q-59 29 -60 154q0 131 55 160q31 16 54.5 19t72.5 3h824q47 0 90 -24.5t66.5 -65.5t23.5 -96t-25 -88l-634 -879h509q80 0 116 -19.5t49.5 -56t13.5 -94t-10.5 -92.5t-24.5 -53.5t-43 -26.5q-33 -12 -105 -12h-852
q-47 0 -90 24q-90 51 -90 162z" />
    <glyph glyph-name="bracketleft" unicode="[" horiz-adv-x="712" 
d="M82 -285v1692q0 80 17.5 116t54 48t96.5 12h315q51 0 76 -14q41 -27 41 -135q0 -104 -37 -127q-31 -18 -82 -19h-149v-1456h151q51 0 76 -16q41 -25 41 -133q0 -104 -37 -127q-31 -18 -82 -19h-315q-119 0 -146 53q-20 43 -20 125z" />
    <glyph glyph-name="backslash" unicode="\" horiz-adv-x="1081" 
d="M31 1448q0 66 114 121q72 33 104 33t48 -7.5t31 -23.5q14 -20 39 -68l655 -1368q29 -76 29 -107.5t-25 -56t-91.5 -55.5t-107.5 -31t-63 24t-45 75l-662 1378q-27 55 -26 86z" />
    <glyph glyph-name="bracketright" unicode="]" horiz-adv-x="712" 
d="M31 -316q0 52 8 84.5t27 45.5q31 18 81 18h152v1456h-149q-94 0 -111 64q-8 31 -8 83t8 84.5t27 45.5q31 18 81 18h316q121 0 147 -55q20 -41 21 -121v-1692q0 -82 -17.5 -117.5t-53.5 -48t-95 -12.5h-315q-94 0 -111 62q-8 33 -8 85z" />
    <glyph glyph-name="asciicircum" unicode="^" horiz-adv-x="1077" 
d="M84 682q0 29 53 78l303 303q47 51 86 51h23q41 0 90 -51l301 -303q33 -31 43 -46.5t10 -30.5t-6 -42t-53 -74t-73.5 -53t-43.5 -6q-25 0 -76 51l-202 203l-201 -203q-31 -31 -45 -41t-30.5 -10t-44.5 6t-75 53t-53 74t-6 41z" />
    <glyph glyph-name="underscore" unicode="_" horiz-adv-x="1691" 
d="M31 -325.5q0 51.5 9 82t30 42.5q35 16 88 17h1378q98 0 115 -62q10 -31 10 -81t-9.5 -80.5t-29.5 -43.5q-31 -16 -88 -16h-1378q-98 0 -115 59q-10 31 -10 82.5z" />
    <glyph glyph-name="grave" unicode="`" horiz-adv-x="987" 
d="M197 1376.5q0 30.5 16 85.5q35 104 80 117q16 4 24 4q20 0 151.5 -41t203 -63.5t86.5 -28.5q45 -23 45 -66t-16.5 -92t-32 -74.5t-27.5 -38t-35.5 -12.5t-66.5 13l-338 106q-53 18 -71.5 39t-18.5 51.5z" />
    <glyph glyph-name="a" unicode="a" horiz-adv-x="1220" 
d="M51 542q0 214 152.5 374.5t335.5 160.5q70 0 127 -24.5t79.5 -46t36.5 -41.5q12 114 159 114h3q80 0 119 -12t54.5 -43t18.5 -54.5t3 -70.5v-717q0 -47 -3 -70.5t-18 -54.5q-29 -53 -140.5 -53t-149 27.5t-44.5 81.5q-76 -109 -253 -109t-328.5 162t-151.5 376z
M410 538.5q0 -67.5 53 -122t129 -54.5t126 55.5t50 122t-48 124t-129 57.5t-131 -57.5t-50 -125z" />
    <glyph glyph-name="b" unicode="b" horiz-adv-x="1212" 
d="M82 182v1223q0 47 3 70.5t17 52.5q29 55 160 55q129 0 156 -55q16 -31 19 -54.5t3 -70.5v-426q82 100 234 100q182 0 334.5 -161.5t152.5 -375.5t-151.5 -375t-325.5 -161t-248 98q-16 -100 -176 -100q-129 0 -158 55q-14 31 -17 54.5t-3 70.5zM444 537.5
q0 -66.5 50.5 -122t126 -55.5t129 55.5t53.5 123t-49 124t-131 56.5t-130.5 -57.5t-48.5 -124z" />
    <glyph glyph-name="c" unicode="c" horiz-adv-x="1058" 
d="M51 544q0 132 53.5 239.5t137.5 172.5q170 135 362 136q78 0 151.5 -21.5t108.5 -42.5l33 -20q37 -25 57 -39q54 -41 54 -95q0 -52 -43 -116q-74 -113 -142 -113q-39 0 -110 45q-37 35 -105.5 35t-128 -49t-59.5 -136t57.5 -135.5t122 -48.5t120.5 38t91 38
q61 0 150 -108q47 -59 47 -107q0 -78 -113 -145q-117 -82 -287 -82q-190 0 -366 137q-84 66 -137.5 175.5t-53.5 241.5z" />
    <glyph glyph-name="d" unicode="d" horiz-adv-x="1224" 
d="M61 540q0 214 153 375.5t335 161.5q152 0 235 -102v430q0 47 3.5 70.5t18.5 53.5t54 42t103.5 12t103.5 -12t54.5 -43t18.5 -54.5t3 -70.5v-1223q0 -47 -3 -70.5t-20 -52.5q-31 -55 -173 -55t-159 100q-86 -98 -239 -98q-184 0 -336 161t-152 375zM420 538.5
q0 -67.5 53 -123t129 -55.5t126 55.5t50 122t-48 124t-130 57.5t-131 -56.5t-49 -124z" />
    <glyph glyph-name="e" unicode="e" horiz-adv-x="1173" 
d="M51 535q0 258 167 412.5t417 154.5q285 0 418 -201q70 -105 70 -230q1 -127 -63 -189q-62 -60 -138 -60h-486q0 -57 67.5 -96t135.5 -39q119 0 186 24l23 8q49 23 82 23q66 0 112 -92q27 -55 27 -94q0 -182 -436 -183q-152 0 -269.5 52.5t-183.5 138.5q-129 166 -129 371
zM432 608h258q78 0 78 66q0 47 -36 75.5t-102.5 28.5t-132 -54t-65.5 -116z" />
    <glyph glyph-name="f" unicode="f" horiz-adv-x="921" 
d="M31 897q0 168 121 168h67v109q0 158 112.5 285.5t325.5 127.5q47 0 71 -3t54 -19q55 -27 56 -158q0 -98 -35 -141q-29 -33 -90 -37h-58q-76 0 -75 -51v-113l133 12q141 0 166 -78q12 -39 12 -102t-13.5 -101t-41.5 -55q-41 -24 -119 -24h-6l-131 8v-549
q0 -78 -19.5 -115.5t-59.5 -50t-103.5 -12.5t-101.5 13.5t-54.5 43t-19.5 54t-3 71.5v543h-74q-53 4 -75 25q-39 39 -39 149z" />
    <glyph glyph-name="g" unicode="g" horiz-adv-x="1198" 
d="M51 555q0 209 149.5 366.5t327.5 157.5q70 0 127.5 -25.5t79 -47t33.5 -39.5q6 57 42 86.5t116 29.5t116.5 -12t52 -42t18.5 -52.5t3 -69.5v-848q0 -236 -164 -380t-368 -144q-156 0 -297.5 76t-141.5 137q0 80 62 141q39 43 60.5 59.5t50 16.5t59.5 -24q98 -76 213 -76
q78 0 127 61.5t49 147.5v61q-78 -102 -248 -102t-318.5 156.5t-148.5 365.5zM401 554q0 -67 52.5 -120t127 -53t124 54t49.5 118.5t-47.5 121t-127 56.5t-129 -55t-49.5 -122z" />
    <glyph glyph-name="h" unicode="h" horiz-adv-x="1239" 
d="M82 180v1225q0 47 3 70.5t17 52.5q29 55 160 55q129 0 156 -55q16 -31 19 -54.5t3 -70.5v-453q103 125 240 125q205 0 341 -155.5t136 -380.5v-361q0 -47 -3 -70.5t-19 -54.5q-27 -53 -158 -53q-125 0 -156 53q-16 31 -19 55.5t-3 73.5v359q0 84 -47 131t-120 47
t-128 -44t-64 -100v-397q0 -47 -3 -70.5t-19 -54.5q-27 -53 -158 -53q-129 0 -158 55q-14 31 -17 53.5t-3 71.5z" />
    <glyph glyph-name="i" unicode="i" horiz-adv-x="522" 
d="M82 180v719q0 47 3 70.5t17 54.5q29 53 160 53q98 0 139 -35q35 -29 37 -88q2 -20 2 -59v-717q0 -47 -3 -70.5t-19 -54.5q-27 -53 -158 -53q-129 0 -158 55q-14 31 -17 53.5t-3 71.5zM82 1405q0 47 3 70.5t17 52.5q29 55 160 55q129 0 156 -55q16 -31 19 -54.5t3 -70.5
t-3 -70.5t-18.5 -53.5t-54 -42t-103 -12t-103.5 12t-54.5 43t-18.5 54.5t-3 70.5z" />
    <glyph glyph-name="j" unicode="j" horiz-adv-x="516" 
d="M-270 -292.5q0 120.5 44 151t118.5 30.5t132 41t57.5 148v844q0 72 19.5 105.5t57.5 45.5t101.5 12t100 -12t52 -42t18.5 -53.5t3 -70.5v-844q0 -240 -166 -383t-364 -143q-47 0 -69.5 3t-51.5 18q-53 29 -53 149.5zM82 1407q0 47 3 69.5t17 51.5q29 53 158 53
q123 0 154 -53q14 -27 17 -49.5t3 -67.5v-12q0 -45 -3 -67.5t-19.5 -51.5t-54.5 -40t-101 -11t-100 12t-52.5 42t-18.5 53.5t-3 70.5z" />
    <glyph glyph-name="k" unicode="k" horiz-adv-x="1097" 
d="M82 180v1227q0 47 3 70.5t17 54.5q29 55 160 55q98 0 139 -35q35 -29 37 -90q2 -18 2 -57v-649q37 31 112 104.5t112 104.5l24 16q72 55 123 55t117.5 -83t66.5 -130t-75 -110l-203 -172l272 -226q51 -43 64.5 -65.5t13.5 -42.5q0 -49 -63 -133q-70 -86 -123 -86
q-45 0 -125 59l-21 14q-47 39 -145 136.5t-150 138.5v-158q0 -47 -3 -70.5t-19 -54.5q-27 -53 -158 -53q-129 0 -158 55q-14 31 -17 54.5t-3 70.5z" />
    <glyph glyph-name="l" unicode="l" horiz-adv-x="669" 
d="M82 432v975q0 47 3 70.5t17 54.5q29 55 160 55q125 0 156 -55q16 -31 19 -55.5t3 -71.5v-948q0 -74 12.5 -93.5t54.5 -19.5t56.5 -3t34.5 -17q41 -27 41 -146q0 -129 -41 -158q-32 -22 -116 -22q-57 0 -138 10q-158 20 -205 105q-57 100 -57 319z" />
    <glyph glyph-name="m" unicode="m" horiz-adv-x="1742" 
d="M82 180v721q0 47 3 70.5t19 52.5q31 55 146 55t149.5 -36.5t34.5 -106.5q96 145 232 145q209 0 311 -178q23 31 54.5 64.5t101 73.5t143.5 40q164 0 274.5 -126t110.5 -416v-359q0 -47 -3 -70.5t-20 -54.5q-27 -55 -157 -55q-129 0 -158 57q-14 31 -17 54.5t-3 70.5v359
q0 178 -127 178q-72 0 -97.5 -47t-25.5 -133v-359q0 -49 -3 -71.5t-20 -53.5q-29 -55 -160 -55q-129 0 -157 57q-14 31 -17.5 54.5t-3.5 70.5v359q0 178 -127 178q-123 0 -123 -178v-363q0 -47 -3 -70.5t-19 -54.5q-31 -53 -160 -53t-158 55q-14 31 -17 53.5t-3 71.5z" />
    <glyph glyph-name="n" unicode="n" horiz-adv-x="1241" 
d="M82 182v725q0 45 3 68.5t19 52.5q29 51 158 51q125 0 154 -47q20 -35 20 -84q8 14 37 41t55 43q70 47 154 47q205 0 341 -156.5t136 -381.5v-361q0 -47 -3 -70.5t-17 -52.5q-29 -55 -160 -55q-145 0 -168 76q-12 35 -12 104v361q0 84 -48.5 131t-129 47t-131 -49
t-50.5 -129v-363q0 -47 -3 -70.5t-19 -52.5q-27 -55 -158 -55q-129 0 -158 55q-14 31 -17 54.5t-3 70.5z" />
    <glyph glyph-name="o" unicode="o" horiz-adv-x="1228" 
d="M51 539q0 245 172 405t393.5 160t391.5 -159t170 -404q0 -170 -88.5 -302.5t-214 -194.5t-261 -62t-262.5 66.5t-214 196.5t-87 294zM414 541.5q0 -99.5 65.5 -149.5t133 -50t135 51t67.5 151.5t-63.5 149.5t-137 49t-137 -51t-63.5 -150.5z" />
    <glyph glyph-name="p" unicode="p" horiz-adv-x="1191" 
d="M82 -293v1196q0 47 3 69.5t17 51.5q29 55 137.5 55t146.5 -27.5t44 -80.5q78 106 245 106t316.5 -157.5t149.5 -366.5t-148.5 -366.5t-316.5 -157.5t-244 94v-414q0 -47 -3 -69.5t-18.5 -52t-52 -42t-100 -12.5t-101.5 12.5t-53.5 41t-18.5 51t-3 69.5zM440 550.5
q0 -65.5 48.5 -119.5t123 -54t127 53t52.5 120.5t-49.5 122t-128 54.5t-126 -55.5t-47.5 -121z" />
    <glyph glyph-name="q" unicode="q" horiz-adv-x="1191" 
d="M51 553q0 209 149.5 366.5t316.5 157.5t245 -106q12 108 157 108h3q78 0 114.5 -12t52 -42t18.5 -52.5t3 -69.5v-1196q0 -47 -3 -69.5t-18.5 -51t-53.5 -41t-101.5 -12.5t-100 12.5t-52 42t-18.5 52t-3 69.5v414q-82 -94 -232 -94q-182 0 -329.5 157.5t-147.5 366.5z
M401 550.5q0 -67.5 52.5 -120.5t126 -53t123 54t49.5 118.5t-47.5 121t-126 56.5t-128 -54.5t-49.5 -122z" />
    <glyph glyph-name="r" unicode="r" horiz-adv-x="935" 
d="M82 123v59v719q0 47 3 70.5t17 52.5q29 55 160 55q123 0 154 -47q23 -33 22 -67q10 14 29.5 34.5t83 55.5t112 35t81 -5.5t71.5 -17.5t64.5 -42t25.5 -95.5t-39 -143t-112 -77.5q-37 0 -71 16t-89 16t-103.5 -38.5t-48.5 -94.5v-430q0 -47 -3 -70.5t-19 -54.5
q-31 -53 -160 -53q-98 0 -141 35q-33 29 -37 88z" />
    <glyph glyph-name="s" unicode="s" horiz-adv-x="1001" 
d="M51 174q0 53 78 162q23 35 73 35t136 -50.5t156 -50.5q124 0 124 48q0 40 -137 59q-129 18 -256 96q-59 37 -98 116t-39 187q0 324 444 324q145 0 299 -70q72 -33 72 -82t-45 -120.5t-92 -71.5q-25 0 -91.5 30.5t-144.5 30.5q-121 0 -120 -45q0 -61 139 -80
q135 -14 262 -78q59 -29 99 -99.5t40 -177t-40 -181t-111 -111.5q-131 -63 -329 -63q-1 0 -2 -1q-197 0 -378 115q-39 25 -39 78z" />
    <glyph glyph-name="t" unicode="t" horiz-adv-x="919" 
d="M31 872q0 84 10 122t29 55q32 26 79 26h3l67 -8v211q0 47 3 69.5t20 49.5q27 51 157 51q139 0 166 -76q10 -33 10 -104v-201q90 8 136.5 8t70 -3t54.5 -19q53 -27 53 -158q0 -129 -55 -158q-31 -14 -54.5 -17t-70.5 -3l-134 8v-283q0 -55 17.5 -79.5t66 -24.5t74 -3
t53.5 -20q47 -27 48 -137q0 -129 -58 -158q-31 -14 -54.5 -17t-68.5 -3q-213 0 -323.5 96.5t-110.5 325.5v303q-39 -6 -84 -6t-74.5 34.5t-29.5 118.5z" />
    <glyph glyph-name="u" unicode="u" horiz-adv-x="1241" 
d="M82 543v358q0 49 3 71.5t17 53.5q29 55 160 55q143 0 168 -77q12 -33 12 -105v-358q0 -84 48.5 -131.5t129 -47.5t131 49.5t50.5 129.5v362q0 47 3 70.5t19 54.5q27 53 158 53q129 0 158 -55q14 -31 17 -54.5t3 -70.5v-725q0 -45 -3 -68.5t-19 -52.5q-31 -53 -158 -53
q-125 0 -154 49q-20 35 -20 84q-8 -14 -37 -40.5t-55 -45.5q-70 -45 -152 -45q-207 0 -343 156.5t-136 382.5z" />
    <glyph glyph-name="v" unicode="v" horiz-adv-x="1306" 
d="M31 918q0 74 106 137q78 45 123 45t70.5 -28t54.5 -83l268 -516l269 516q23 39 34 56.5t35.5 35t65 17.5t112.5 -43q106 -63 107 -135q0 -41 -41 -113l-424 -727q-20 -35 -65.5 -62.5t-89.5 -27.5t-84 21.5t-56 43.5l-18 23l-426 729q-41 68 -41 111z" />
    <glyph glyph-name="w" unicode="w" horiz-adv-x="1624" 
d="M31 936q0 82 116 129q66 27 107 27t66.5 -17.5t36 -35t16.5 -35.5q35 -82 145 -386l121 332q12 41 45 72q59 59 120.5 59t105.5 -32.5t61 -65.5l16 -35q102 -287 121 -327l125 340q49 131 147 131q39 -1 82 -21q131 -57 131 -141q0 -35 -32.5 -112t-55.5 -134l-225 -549
q-31 -90 -102 -127q-31 -14 -78 -14t-91 36t-59 72l-16 35q-16 41 -121 320q-20 -49 -60 -161t-51.5 -139.5t-14.5 -36.5t-17.5 -34t-32.5 -43q-49 -49 -112.5 -49t-106.5 36t-58 72l-309 754q-20 61 -20 80z" />
    <glyph glyph-name="x" unicode="x" horiz-adv-x="1161" 
d="M106 1022q74 74 124.5 74t123.5 -74l228 -229l225 229q74 74 125 74t124.5 -74t73.5 -126t-73 -126l-228 -229l228 -230q74 -74 74 -125l-1 -1q0 -52 -73.5 -124.5t-124.5 -72.5t-125 73l-225 228l-228 -228q-74 -74 -123 -74l-1 1q-50 0 -124.5 72.5t-74.5 125t73 125.5
l228 230l-228 229q-74 74 -74 125q1 53 76 127z" />
    <glyph glyph-name="y" unicode="y" horiz-adv-x="1236" 
d="M31 930q0 66 110 131q70 41 109 41t63.5 -16.5t35.5 -34t112.5 -190.5t193.5 -322q10 33 110.5 253t108 234t23.5 35q27 35 74.5 35t113.5 -29q121 -53 121 -129q0 -37 -16 -69.5t-16 -34.5l-537 -1201q-16 -39 -27.5 -59t-36 -38.5t-61.5 -18.5t-109 30
q-120 53 -120 126q0 50 196 470l-407 686q-41 68 -41 101z" />
    <glyph glyph-name="z" unicode="z" horiz-adv-x="1200" 
d="M51 180q0 74 53.5 126t164 150.5t200.5 177.5t98 87h-288q-117 0 -148 39q-35 45 -35 118.5t10.5 109.5t24.5 53.5t41 27.5q35 10 107 10h665q72 0 125 -51t53 -128t-61 -136.5t-440 -403.5h350q82 0 117.5 -20.5t48 -59t12.5 -102t-12.5 -102.5t-43 -54.5t-54 -18.5
t-70.5 -3h-740q-72 0 -125 53t-53 127z" />
    <glyph glyph-name="braceleft" unicode="{" horiz-adv-x="780" 
d="M31 559q0 51 9 84t26 45q27 18 61 19h8q129 0 129 100q2 375 2 418q0 158 95.5 258t238.5 100q68 0 98.5 -15.5t41 -47t10.5 -83t-10.5 -83t-34.5 -43.5q-39 -23 -103 -23q-41 0 -41 -80v-348q0 -90 -30.5 -166t-59.5 -106l-31 -31q12 -6 38 -37t42 -65q41 -92 40 -258
t-1 -265v-49q0 -25 10 -39q14 -14 42 -14t47.5 -3t46.5 -15q45 -23 45 -127q0 -106 -48 -129q-37 -18 -100 -19q-143 0 -239.5 102.5t-96.5 264.5v39l2 190q0 131 -4 180q0 98 -123 99h-12q-70 0 -88 63q-10 33 -10 84z" />
    <glyph glyph-name="bar" unicode="|" horiz-adv-x="444" 
d="M82 -295v1702q0 139 59 164q31 12 81 12t81 -12t43 -43q16 -39 16 -123v-1704q0 -139 -59 -164q-31 -12 -81 -12t-80.5 12t-43.5 43q-16 41 -16 125z" />
    <glyph glyph-name="braceright" unicode="}" horiz-adv-x="780" 
d="M31 -315q0 53 10 83.5t35 43.5q37 18 72.5 18t42 1t17.5 14.5t11 37.5v49l-2 299q0 113 31 194t61 107l31 25q-14 12 -34.5 34.5t-54.5 100.5t-34 168l2 348q0 68 -22 78q-8 2 -34 2t-45.5 4t-43 17.5t-33.5 45t-10 83t10 83t33 44.5q37 18 104 18q143 0 238.5 -100.5
t95.5 -257.5l2 -418q0 -100 129 -100h8q72 0 90 -64q8 -33 8.5 -91t-18 -94t-37 -41t-45.5 -5h-12q-123 0 -123 -99q-4 -49 -4 -180l2 -190v-39q0 -162 -96.5 -264.5t-239.5 -102.5q-115 0 -135 62q-10 33 -10 86z" />
    <glyph glyph-name="asciitilde" unicode="~" horiz-adv-x="1333" 
d="M100 483q0 33 30 81t60.5 82t67.5 59q98 70 234 69q61 0 113 -19.5t79 -41.5q70 -63 100 -64q51 0 68 23l6 8q63 94 114.5 94t104.5 -37q96 -66 97 -121q0 -31 -20.5 -64.5t-29 -46.5t-39 -48t-67.5 -61.5t-99.5 -48t-137 -21.5t-135 31.5t-100.5 64.5t-63.5 33t-40.5 -9
q-27 -14 -26 -24q-63 -98 -117.5 -98t-126.5 60t-72 99z" />
    <glyph glyph-name="exclamdown" unicode="&#xa1;" horiz-adv-x="548" 
d="M82 856q0 119 45 152q49 37 154.5 36.5t145.5 -41t40 -153.5q0 -121 -45 -154q-49 -37 -154.5 -37t-145.5 41t-40 156zM92 -303v649q0 43 3 63.5t19.5 46t56.5 36t105.5 10.5t104.5 -10.5t54.5 -37t18.5 -47t3 -63.5v-649q0 -43 -3 -64.5t-19.5 -48t-56.5 -38
t-105.5 -11.5t-104.5 11.5t-54.5 39t-18.5 49t-3 64.5z" />
    <glyph glyph-name="cent" unicode="&#xa2;" horiz-adv-x="888" 
d="M51 587q0 167 96.5 279.5t233.5 153.5v194q0 121 49 142q27 10 70 10t68.5 -10t35.5 -37q14 -35 14 -107v-188q84 -20 173 -86q45 -31 45 -75t-35 -99q-59 -92 -117 -92q-33 0 -88 37q-33 29 -89 28.5t-104.5 -40.5t-48.5 -111.5t48.5 -111.5t101.5 -40t96 31t76 31
q51 0 123 -88q39 -47 39 -89q0 -63 -93 -118q-49 -35 -127 -54v-163q0 -70 -12 -99.5t-37.5 -40t-68.5 -10.5t-68.5 10.5t-36.5 36.5q-14 35 -14 105v166q-139 43 -234.5 155.5t-95.5 279.5z" />
    <glyph glyph-name="sterling" unicode="&#xa3;" horiz-adv-x="1382" 
d="M31 734q0 48 9 78t34 42q31 16 96 16h47q-2 20 -2 60q0 156 64.5 290t209 209.5t312.5 75.5q223 0 383 -108q45 -31 53 -41l20 -19q55 -68 55.5 -126t-60 -112.5t-124 -54.5t-108.5 58q-18 25 -82 47t-129 22q-150 0 -206 -72.5t-56 -164.5v-21q0 -31 6 -43h207
q59 0 86 -14q43 -25 43 -125q0 -94 -39 -117q-31 -18 -88 -18h-141q12 -61 12 -122.5t-23 -139.5h574q76 0 110.5 -17.5t46 -54.5t11.5 -96.5t-12.5 -95t-41.5 -50.5q-39 -20 -116 -20h-852q-66 0 -116 41t-50 127q0 49 32.5 90t66.5 96.5t34 139.5q0 29 -18 102h-123
q-100 0 -117 59q-8 31 -8 79z" />
    <glyph glyph-name="currency" unicode="&#xa4;" horiz-adv-x="1386" 
d="M51 145q0 35 33 86q68 119 135 162q-125 150 -125 399.5t125 403.5q-23 14 -68 63.5t-69.5 101.5t-24.5 81q0 55 65.5 97t95.5 42t49.5 -14.5t28.5 -27.5t23.5 -37.5t28.5 -47t28.5 -33t96.5 -26t215 -15.5h25q289 0 319 62l31 51q33 53 55.5 67.5t51 14.5t83.5 -31
q80 -47 80 -104q0 -33 -30 -86q-68 -115 -136 -160q125 -150 125 -400.5t-121 -402.5q14 -8 64 -67q100 -121 100 -173.5t-68.5 -96.5t-111.5 -44t-90 84q-8 8 -35 53q-31 61 -330 62h-41q-262 0 -303 -59l-32 -58q-31 -53 -52.5 -67.5t-50 -14.5t-86.5 31q-84 47 -84 104z
M401 795q0 -295 281 -295q147 0 226 62.5t79 227t-75.5 230t-219 65.5t-217.5 -66.5t-74 -223.5z" />
    <glyph glyph-name="yen" unicode="&#xa5;" horiz-adv-x="1386" 
d="M31 1325q0 63 88 123.5t127 60.5t62.5 -15t36.5 -32.5t36 -50.5l313 -502l314 502q23 33 36 50.5t36.5 32.5t63.5 15t126 -59t86 -123q0 -41 -51 -119l-316 -469h31q92 0 113 -18q37 -33 36.5 -83t-10.5 -73.5t-33 -32.5q-35 -14 -100 -14h-152v-135h146q92 0 113 -18
q37 -33 36.5 -82.5t-10.5 -73t-33 -33.5q-35 -12 -100 -12h-152q0 -125 -83 -152q-37 -10 -97.5 -10t-98.5 11.5t-54 35.5q-27 43 -27 115h-154q-45 0 -69.5 4t-48 29.5t-23.5 77t26.5 77t51.5 28.5t74 3h143v135h-154q-45 0 -69.5 4t-48 30t-23.5 71t12.5 69.5t38.5 32.5
q39 14 101 14h28l-321 480q-47 72 -47 106z" />
    <glyph glyph-name="brokenbar" unicode="&#xa6;" horiz-adv-x="440" 
d="M82 -281v623q0 94 61 121q31 12 79 12t79 -13t41 -40q16 -41 16 -80v-625q0 -82 -14 -115.5t-45 -46t-80 -12.5t-78.5 12.5t-42.5 43.5q-16 39 -16 120zM82 784v625q0 137 61 162q29 12 78 12t79 -12t42 -43q16 -39 16 -121v-623q0 -92 -59 -116q-31 -14 -79 -14.5
t-78.5 13t-43.5 38.5q-16 39 -16 79z" />
    <glyph glyph-name="section" unicode="&#xa7;" horiz-adv-x="1146" 
d="M51 -137q0 63 84 141q49 47 103.5 47t136.5 -82l16 -16q27 -35 79 -64.5t95 -29.5q182 0 183 149q0 72 -134 109q-59 16 -129.5 33.5t-142.5 47t-131 74.5t-96 126t-37 190q0 158 100 272q-100 104 -100 279.5t128 304.5t349 129q117 0 214 -31t136 -59l47 -39
q61 -57 61.5 -95t-48.5 -108q-68 -100 -138 -100q-59 0 -122 59q-53 51 -152 51q-47 0 -89 -29.5t-42 -84t50 -88t125 -45t162 -36t161.5 -60.5t125 -122t50.5 -233t-92 -266q92 -98 92 -273q0 -125 -51.5 -222t-131.5 -148q-164 -106 -342 -107q-184 0 -309 78
q-102 66 -143 121l-17 22q-51 63 -51 105zM422 573q0 -106 250 -141q76 35 76 131q0 55 -66 84q-70 27 -150 47q-43 -6 -76.5 -34.5t-33.5 -86.5z" />
    <glyph glyph-name="dieresis" unicode="&#xa8;" horiz-adv-x="1001" 
d="M83 1404q1 50 4 71.5t18.5 52.5t55.5 43t105.5 12t104.5 -12t55 -44t19.5 -55.5t3.5 -71.5t-3.5 -71.5t-19.5 -54.5t-56 -43t-105.5 -12t-104.5 12t-55.5 44t-19.5 55.5t-2 73.5zM635 1403q0 49 3 72.5t19.5 53.5t56.5 42t105.5 12t104.5 -12t55 -44t19 -55.5t3 -71.5
t-3 -71.5t-19 -54.5t-56 -43t-105.5 -12t-104.5 12t-55.5 44t-19.5 55.5t-3 72.5z" />
    <glyph glyph-name="copyright" unicode="&#xa9;" horiz-adv-x="1456" 
d="M51.5 867q-0.5 345 172.5 504t509 159t492 -154q180 -174 180 -516q0 -123 -33 -255t-113.5 -222t-202.5 -138t-329 -48q-340 0 -491 147q-184 178 -184.5 523zM229 864q0 -274 116 -383.5t379 -109.5t372 96q131 113 131 385t-111.5 388t-379 116t-378.5 -101
q-129 -117 -129 -391zM340 877q0 145 113.5 264t277.5 119q150 0 242 -80q41 -35 41 -54q0 -70 -62 -118q-23 -18 -44.5 -18.5t-37.5 7.5q-57 49 -130.5 49.5t-129 -50t-55.5 -136.5t57.5 -135t126.5 -49q57 0 97.5 29.5t66 29.5t34.5 -6t36 -37q39 -51 39 -88v-8
q-2 -33 -41 -59q-104 -74 -219 -74q-168 0 -290 111.5t-122 302.5z" />
    <glyph glyph-name="ordfeminine" unicode="&#xaa;" horiz-adv-x="911" 
d="M51 1076.5q0 152.5 108.5 268t239.5 115.5q49 0 90 -18q61 -25 84 -64q12 82 117 82q102 0 125 -39q14 -31 14 -90v-512q0 -47 -4 -68.5t-33.5 -41t-91.5 -19.5q-115 0 -125 78q-51 -78 -180 -78t-236.5 117t-107.5 269.5zM307 1073q0 -49 39 -87t93.5 -38t89 40t34.5 87
t-33.5 88t-92 41t-94.5 -41t-36 -90z" />
    <glyph glyph-name="guillemotleft" unicode="&#xab;" horiz-adv-x="1368" 
d="M31 536.5q0 59.5 57 116.5l358 357q59 59 105.5 59t109 -62.5t62.5 -111.5q0 -35 -19.5 -56.5t-39 -39t-25.5 -25.5l-238 -237l236 -236q4 -4 25.5 -24.5t29.5 -30.5q31 -33 31 -74t-63.5 -104.5t-108.5 -63.5t-109 64l-354 352q-57 57 -57 116.5zM643 540.5
q0 59.5 57 112.5l359 357q59 59 105 59t109.5 -63.5t63.5 -110.5q0 -37 -20.5 -57.5t-38.5 -38t-27 -25.5l-237 -237l235 -236q4 -4 25.5 -24.5t32.5 -30.5q29 -33 28.5 -74t-64 -104.5t-108.5 -63.5t-108 64l-355 352q-57 61 -57 120.5z" />
    <glyph glyph-name="logicalnot" unicode="&#xac;" horiz-adv-x="1077" 
d="M31 726q0 62 11 100t36.5 53.5t43 18.5t52.5 3h725q50 0 70 -8q51 -12 64.5 -43t13.5 -86v-373q0 -104 -60 -125q-31 -10 -80 -10t-78.5 11.5t-42.5 35.5q-16 41 -16 96v150h-602q-104 0 -127 76q-10 39 -10 101z" />
    <glyph glyph-name="uni00AD" unicode="&#xad;" horiz-adv-x="886" 
d="M51 448.5q0 57.5 12.5 92t38.5 49.5q37 18 99 18h487q115 0 135 -67q12 -37 12.5 -94.5t-11 -93.5t-36.5 -50q-36 -18 -102 -18h-487q-115 0 -138 69q-10 37 -10 94.5z" />
    <glyph glyph-name="registered" unicode="&#xae;" horiz-adv-x="1456" 
d="M51.5 867q-0.5 345 172.5 504t509 159t492 -154q180 -174 180 -516q0 -123 -33 -255t-113.5 -222t-202.5 -138t-329 -48q-340 0 -491 147q-184 178 -184.5 523zM229 864q0 -274 116 -383.5t378 -109.5t383 113.5t121 376.5t-111.5 379t-379 115.5t-378.5 -100.5
q-129 -117 -129 -391zM459 588v592q0 43 23.5 64.5t101.5 21.5h170q119 0 209 -77t90 -200t-76 -205q49 -115 57 -134t17.5 -37.5t9.5 -44t-38 -57.5t-90 -32t-73 51q-27 53 -72 164q-20 -2 -59 -2h-61v-104q0 -33 -4.5 -50.5t-29 -34t-72.5 -16.5t-72.5 17.5t-27.5 34
t-3 49.5zM668 903h92q33 0 57.5 19.5t25.5 55.5t-24.5 57.5t-62.5 21.5h-88v-154z" />
    <glyph glyph-name="degree" unicode="&#xb0;" horiz-adv-x="833" 
d="M51 1201q0 161 111.5 266.5t255 105.5t254 -104.5t110.5 -268.5t-113.5 -265t-251.5 -101t-252 103t-114 264zM287 1202.5q0 -65.5 42 -98.5t87 -33t88 33t43 99.5t-41 99t-88 32.5t-89 -33.5t-42 -99z" />
    <glyph glyph-name="plusminus" unicode="&#xb1;" horiz-adv-x="1034" 
d="M51 709.5q0 76.5 11.5 109.5t35.5 45q39 20 109 21h155v73q0 70 16.5 102t50.5 42t89 10t88 -11t45 -36q20 -39 21 -109v-71h157q70 0 102 -16.5t42 -50.5t10 -89t-10 -88t-35 -45q-35 -18 -71 -18h-40h-155v-62q0 -70 -16.5 -101.5t-50.5 -42t-89 -10.5t-88 11.5
t-47 36.5q-18 39 -19 108v60h-157q-88 0 -115 20q-39 35 -39 111.5zM80 140q0 50 11 81t36 41q41 18 96 19h590q109 0 129 -60q12 -31 12 -81t-10 -80.5t-35 -43.5q-32 -14 -98 -14h-590q-109 0 -131 59q-10 29 -10 79z" />
    <glyph glyph-name="uni00B2" unicode="&#xb2;" horiz-adv-x="931" 
d="M51 1130q0 162 114 285t289 123t291.5 -119t116.5 -291q0 -78 -32.5 -148.5t-84.5 -119.5q-86 -84 -149 -119h184q94 0 113 -65q8 -33 8 -86t-9 -85t-30 -44q-31 -18 -82 -19h-559q-59 0 -113.5 36t-54.5 121t52.5 148.5t127 106.5t149.5 84t127 96.5t52 120.5
q0 31 -31.5 58.5t-74.5 27.5t-70 -29q-33 -37 -33 -95t-29.5 -95t-132.5 -37q-100 0 -120 51q-18 39 -19 94z" />
    <glyph glyph-name="uni00B3" unicode="&#xb3;" horiz-adv-x="935" 
d="M51 778q0 104 162 105q98 0 123 -60q27 -92 78 -114q23 -12 61.5 -12.5t67.5 20.5q43 33 43 74v8q0 27 -4 39t-32 24t-71 12t-58 2.5t-36 12.5q-37 18 -37 108q0 41 20.5 63.5t40 26t52.5 3.5h8q94 0 94 92q0 35 -29.5 57.5t-65.5 22.5t-57.5 -12.5t-29.5 -25t-15.5 -33
t-12.5 -30.5t-13 -20q-23 -29 -79 -29t-120 51q-45 41 -45 105.5t103.5 167t273.5 102.5t279.5 -101.5t109.5 -230t-92 -194.5q115 -84 115 -224.5t-113 -251t-311 -110.5q-82 0 -150.5 22.5t-107.5 55.5q-86 72 -107 119l-10 22q-35 70 -35 133z" />
    <glyph glyph-name="acute" unicode="&#xb4;" horiz-adv-x="1239" 
d="M309.5 1370q-0.5 35 14.5 53q18 27 73 43l338 105q53 14 62 14q61 0 98 -121q16 -49 16 -82.5t-14 -52.5q-18 -27 -74 -43l-336 -106q-29 -14 -61 -15q-61 0 -100 121q-16 49 -16.5 84z" />
    <glyph glyph-name="mu" unicode="&#xb5;" horiz-adv-x="1230" 
d="M82 -272v1175q0 47 3 69.5t18.5 52.5t54.5 42t102.5 12t102 -12t54 -42t18.5 -53.5t3 -70.5v-356q0 -84 47 -130t128 -46t130.5 48t49.5 130v356q0 47 3 70.5t18 53.5t54 42t102.5 12t102.5 -12t54.5 -43t18.5 -54.5t3 -70.5v-711q0 -47 -3 -70.5t-20 -51.5
q-27 -53 -157 -54q-121 0 -152 47q-20 33 -20 80q-76 -127 -203 -127q-68 0 -105.5 23.5t-50.5 28.5v-340q0 -47 -3 -71t-19.5 -52.5t-55 -41t-102 -12.5t-101.5 12.5t-53.5 42t-18.5 53.5t-3 71z" />
    <glyph glyph-name="paragraph" unicode="&#xb6;" horiz-adv-x="1257" 
d="M61 897q0 102 10.5 159.5t46.5 107.5t110.5 70.5t197.5 20.5h573q100 0 123 -55q16 -39 17 -123v-1376q0 -139 -60 -164q-31 -12 -81 -12t-80.5 12t-43.5 43q-16 41 -16 125v1344h-151v-1348q0 -139 -60 -164q-31 -12 -81 -12t-80.5 12t-43.5 43q-16 41 -16 125v836
q-221 2 -293 87t-72 269z" />
    <glyph glyph-name="periodcentered" unicode="&#xb7;" horiz-adv-x="485" 
d="M51 627v8q0 47 3 71.5t20 55.5q31 61 154.5 61t170.5 -43q35 -35 35 -143v-8q0 -49 -3 -73t-21 -56q-31 -59 -155 -59.5t-164 38.5t-40 148z" />
    <glyph glyph-name="cedilla" unicode="&#xb8;" horiz-adv-x="1144" 
d="M360 -289q0 31 23 56q41 49 66.5 49t56.5 -23q8 -2 14 -4t18.5 -2t28 11.5t15.5 36t-16.5 36.5t-34 12t-27.5 -10q-33 -20 -59.5 -20t-63.5 51q-20 35 -19 57q6 55 68.5 77.5t101.5 22.5q82 0 156 -60t74 -167.5t-80 -169.5q-63 -57 -141 -57t-126 32.5t-55 63.5v8z" />
    <glyph glyph-name="uni00B9" unicode="&#xb9;" horiz-adv-x="657" 
d="M31 1167q0 45 30 74l23 25q227 205 235 213q48 47 107 47q150 0 149 -125v-840q0 -92 -67 -110q-33 -8 -86 -8.5t-85 10t-44 32.5q-18 35 -19 80v477q-47 -33 -91 -32.5t-98 50.5t-54 107z" />
    <glyph glyph-name="ordmasculine" unicode="&#xba;" horiz-adv-x="899" 
d="M51 1054q0 173 122 285.5t278.5 112.5t276.5 -112.5t120 -289t-123 -284t-273.5 -107.5t-275.5 111t-125 284zM309 1054.5q0 -69.5 46 -105.5t94.5 -36t95.5 36t47 107.5t-45 105.5t-96.5 34t-96.5 -36t-45 -105.5z" />
    <glyph glyph-name="guillemotright" unicode="&#xbb;" horiz-adv-x="1370" 
d="M31 904q0 36 64.5 100.5t111.5 64.5t106 -63l355 -353q57 -57 57 -116.5t-57 -116.5l-363 -361q-53 -53 -100 -53t-109.5 62.5t-62.5 109.5q0 35 19.5 56.5t41 42t25.5 24.5l237 236l-239 237q-6 6 -18.5 16.5t-19.5 17.5t-17.5 18.5t-16.5 21.5q-14 20 -14 56z
M645.5 902.5q-0.5 39.5 63 103t109.5 63.5t110 -63l352 -353q59 -59 59 -116.5t-59 -116.5l-352 -352q-63 -63 -108.5 -63.5t-109 63t-63.5 110.5q0 35 19.5 56.5t41 42t25.5 24.5l236 236l-240 237q-4 4 -21.5 19.5t-23.5 21.5l-18 23q-20 25 -20.5 64.5z" />
    <glyph glyph-name="onequarter" unicode="&#xbc;" horiz-adv-x="1609" 
d="M102 1288q0 43 43 80q180 162 187 168q37 37 84 37q117 0 116 -98v-664q0 -74 -51 -86q-27 -8 -75 -8t-74.5 16.5t-30.5 32.5t-4 45v381q-39 -27 -74 -27t-78 40t-43 83zM242 14.5q0 24.5 14 48.5l791 1496q27 47 52 47t74.5 -27t49.5 -57q0 -14 -15 -39l-792 -1497
l-4 -6q-23 -41 -47.5 -41t-73.5 25.5t-49 50zM852 335q0 44 10 89l86 346q20 92 82 92q66 0 111 -25.5t45 -66.5l-19 -98l-53 -207h137v291q0 49 12.5 69.5t38 27.5t67.5 7t67.5 -8t36.5 -27q14 -27 14 -73v-654q0 -72 -49 -86q-27 -6 -69 -6t-67.5 8.5t-35.5 22.5
q-14 23 -15 63v140h-303q-43 0 -69.5 25.5t-26.5 69.5z" />
    <glyph glyph-name="onehalf" unicode="&#xbd;" horiz-adv-x="1646" 
d="M102 1288q0 43 43 80q180 162 187 168q37 37 84 37q117 0 116 -98v-664q0 -74 -51 -86q-27 -8 -75 -8t-74.5 16.5t-30.5 32.5t-4 45v381q-39 -27 -74 -27t-78 40t-43 83zM242 14.5q0 24.5 14 48.5l791 1496q27 47 52 47t74.5 -27t49.5 -57q0 -14 -15 -39l-792 -1497
l-4 -6q-23 -41 -47.5 -41t-73.5 25.5t-49 50zM852 125q0 68 41 118t100.5 84.5t118.5 65.5q141 76 141 172q0 27 -24.5 47.5t-58 20.5t-54.5 -23q-27 -31 -26.5 -66.5t-6 -57t-36 -39t-84 -17.5t-80 21.5t-28.5 41t-3 54.5q0 127 90 224t227.5 97t229.5 -94t92 -229
q0 -127 -92 -215q-66 -61 -117 -92h145q72 0 89 -50q8 -27 8 -76t-15.5 -75.5t-32 -30.5t-49.5 -4h-442q-47 0 -90 27.5t-43 95.5z" />
    <glyph glyph-name="threequarters" unicode="&#xbe;" horiz-adv-x="1724" 
d="M102 973q0 84 127 84q84 0 103 -60q2 -10 5 -20t12 -23.5t20 -23.5q27 -23 63.5 -23t65 21.5t28.5 48.5t-2 35t-10 18q-16 20 -63.5 20.5t-59.5 2.5t-26.5 10t-20.5 28.5t-6 53.5t15.5 50t30.5 20.5t42 3.5h8q74 0 74 73q0 29 -23.5 45.5t-52.5 16.5t-46 -9.5t-21 -19.5
q-18 -35 -19 -43q-27 -45 -75 -45t-91 37t-43 87t82 131t216 81t221 -80t87.5 -182.5t-71.5 -153.5q90 -66 90 -176.5t-89 -198.5t-247 -88t-258 113q-20 25 -43 72t-23 94zM356 14.5q0 24.5 15 48.5l790 1496q27 47 52.5 47t74.5 -27t49 -57q0 -14 -14 -39l-793 -1497
l-4 -6q-23 -41 -47 -41t-73.5 25.5t-49.5 50zM967 341q0 50 10 83l86 346q20 92 82 92q66 0 110.5 -25.5t44.5 -66.5l-18 -98l-53 -207h135v289q0 51 12.5 71.5t39 27.5t68.5 7t67.5 -8t35.5 -27q14 -27 15 -73v-654q0 -72 -50 -86q-27 -6 -68.5 -6t-67 8.5t-36.5 22.5
q-14 23 -14 63l-2 140h-301q-43 0 -69.5 25.5t-26.5 75.5z" />
    <glyph glyph-name="questiondown" unicode="&#xbf;" horiz-adv-x="1046" 
d="M51 8q0 88 32 163t77 118q90 86 168 112l32 13q0 37 3.5 54t18.5 38.5t51 31t95.5 9.5t94 -9.5t49.5 -33.5q20 -35 20 -107v-16q0 -88 -50 -139.5t-109.5 -68.5t-109.5 -55t-50 -104.5t38 -103.5t113.5 -37t111.5 24.5t44 49.5l6 22q16 51 41 80t65 28.5t89 -18.5
q135 -53 135 -120q0 -41 -10.5 -61.5t-12.5 -28t-10 -29t-44 -74.5t-82 -93t-130 -74t-186 -34q-217 0 -353.5 139.5t-136.5 323.5zM342 864v33q0 49 3 72.5t20 56.5q33 59 156.5 59t163.5 -40.5t40 -153.5q0 -80 -20.5 -120t-62.5 -54.5t-131 -14.5t-129 39t-40 123z" />
    <glyph glyph-name="Agrave" unicode="&#xc0;" horiz-adv-x="1566" 
d="M31 147q0 35 35 105l552 1145q23 47 69 75.5t97 28.5q111 0 164 -106l553 -1143q35 -70 35 -105q0 -74 -119 -133q-70 -35 -109.5 -34.5t-65 18.5t-37 38.5t-31.5 61.5l-107 221h-567l-107 -221q-20 -41 -31.5 -59.5t-37 -37.5t-65.5 -19t-109 34q-119 57 -119 131z
M426 1764.5q0 33.5 16 82.5q39 121 101 121q8 0 61 -14l338 -105q29 -10 45 -18q43 -20 43 -66.5t-16 -95.5q-40 -121 -101 -121q-18 0 -61 15l-338 106q-55 16 -71.5 39t-16.5 56.5zM647 623h273l-138 280z" />
    <glyph glyph-name="Aacute" unicode="&#xc1;" horiz-adv-x="1566" 
d="M31 147q0 35 35 105l552 1145q23 47 69 75.5t97 28.5q111 0 164 -106l553 -1143q35 -70 35 -105q0 -74 -119 -133q-70 -35 -109.5 -34.5t-65 18.5t-37 38.5t-31.5 61.5l-107 221h-567l-107 -221q-20 -41 -31.5 -59.5t-37 -37.5t-65.5 -19t-109 34q-119 57 -119 131z
M545 1780q0 35 12 53q20 27 76 43l338 104q53 14 61 15q61 0 98 -121q16 -49 16.5 -83t-11.5 -52q-20 -27 -76 -43l-336 -107l-61 -14q-61 0 -101 121q-16 49 -16 84zM647 623h273l-138 280z" />
    <glyph glyph-name="Acircumflex" unicode="&#xc2;" horiz-adv-x="1566" 
d="M31 147q0 35 35 105l552 1145q23 47 69 75.5t97 28.5q111 0 164 -106l553 -1143q35 -70 35 -105q0 -74 -119 -133q-70 -35 -109.5 -34.5t-65 18.5t-37 38.5t-31.5 61.5l-107 221h-567l-107 -221q-20 -41 -31.5 -59.5t-37 -37.5t-65.5 -19t-109 34q-119 57 -119 131z
M375 1798q0 66 78 92l284 95l49 10l48 -10q190 -61 275 -90t85 -101q0 -39 -23 -82q-53 -109 -122 -108q-18 0 -66 14l-197 86l-190 -82h-2q-41 -14 -68 -14q-78 0 -127 104q-25 53 -24 86zM647 623h273l-138 280z" />
    <glyph glyph-name="Atilde" unicode="&#xc3;" horiz-adv-x="1566" 
d="M31 147q0 35 35 105l552 1145q23 47 69 75.5t97 28.5q111 0 164 -106l553 -1143q35 -70 35 -105q0 -74 -119 -133q-70 -35 -109.5 -34.5t-65 18.5t-37 38.5t-31.5 61.5l-107 221h-567l-107 -221q-20 -41 -31.5 -59.5t-37 -37.5t-65.5 -19t-109 34q-119 57 -119 131z
M373 1752q0 32 16.5 58.5t22.5 38t29.5 39t52.5 49.5q76 55 157.5 55.5t126.5 -25t74 -51.5t47 -26q33 0 53 25q43 78 92 78q31 0 74 -31q74 -51 74 -98q0 -29 -16.5 -55.5t-22.5 -38t-28.5 -40t-51.5 -51.5q-78 -57 -157.5 -57t-126 26.5t-76 53.5t-47.5 27q-29 0 -54 -25
q-47 -82 -87 -82t-96 49t-56 81zM647 623h273l-138 280z" />
    <glyph glyph-name="Adieresis" unicode="&#xc4;" horiz-adv-x="1566" 
d="M31 147q0 35 35 105l552 1145q23 47 69 75.5t97 28.5q111 0 164 -106l553 -1143q35 -70 35 -105q0 -74 -119 -133q-70 -35 -109.5 -34.5t-65 18.5t-37 38.5t-31.5 61.5l-107 221h-567l-107 -221q-20 -41 -31.5 -59.5t-37 -37.5t-65.5 -19t-109 34q-119 57 -119 131z
M331 1813.5q1 50.5 4 72t18.5 52t55.5 43t105.5 12.5t104 -12.5t55 -44t19.5 -55t3 -72t-3 -72t-19.5 -54t-56 -43t-105.5 -12.5t-104.5 12.5t-55 44t-19.5 55t-2 74zM647 623h273l-138 280zM883 1812.5q0 49.5 3 73t19.5 53t56 42t105.5 12.5t104.5 -12.5t55 -44t19.5 -55
t3 -72t-3 -72t-19.5 -54t-56.5 -43t-105.5 -12.5t-104 12.5t-55 44t-19.5 55t-3 73z" />
    <glyph glyph-name="Aring" unicode="&#xc5;" horiz-adv-x="1566" 
d="M31 147q0 35 17.5 69t576.5 1191q-106 78 -106.5 202t80.5 198.5t184.5 74.5t183.5 -73.5t80 -197.5t-105 -204l559 -1155q35 -70 35 -105q0 -74 -119 -133q-70 -35 -109.5 -34.5t-65 18.5t-37 38.5t-31.5 61.5l-107 221h-567l-107 -221q-20 -41 -31.5 -59.5t-37 -37.5
t-65.5 -19t-109 34q-119 57 -119 131zM647 623h273l-138 280zM657 1616.5q0 -62.5 41 -93t84 -30.5t84 31.5t41 94t-40 93.5t-85 31t-85 -32t-40 -94.5z" />
    <glyph glyph-name="AE" unicode="&#xc6;" horiz-adv-x="2351" 
d="M0 187.5q0 48.5 68 123.5q131 141 1032 1139q51 53 131 53h889q47 0 70.5 -3t54.5 -19q55 -29 55 -160q0 -127 -51 -158q-43 -23 -119 -22h-635v-207h399q82 0 119 -20.5t49.5 -59.5t12.5 -102.5t-12.5 -102.5t-42 -55t-54 -19.5t-74.5 -3.5h-397v-206h637q76 0 111 -21
q57 -35 57 -162q0 -143 -76 -170q-35 -10 -106 -10h-807q-74 0 -127.5 55.5t-53.5 128.5v119h-579l-225 -248q-68 -76 -131.5 -75.5t-129 79t-65.5 127zM825 608h305v336q-8 -10 -305 -336z" />
    <glyph glyph-name="Ccedilla" unicode="&#xc7;" horiz-adv-x="1390" 
d="M51 757q0 163 53.5 294t136.5 215t189 143q199 111 406 111q96 0 194 -31t150 -59l51 -31q35 -25 55 -39q53 -41 53 -95.5t-43 -113.5q-78 -111 -141 -111q-35 0 -106 45q-86 70 -230 70q-133 0 -262 -92q-61 -45 -102 -127t-41 -185.5t41 -186.5t106 -130
q127 -90 258 -90q63 0 119.5 16.5t81.5 32.5l24 19l15 8q66 43 98 43q61 0 135 -115q45 -72 45 -108.5t-18.5 -63t-35.5 -40t-54 -36.5q-115 -82 -287 -110q78 -63 78 -166t-70.5 -161t-150.5 -58q-53 0 -82 14q-78 39 -82 78l-2 10q0 25 30.5 61.5t52 36.5t36 -9t22.5 -11
q8 -8 24.5 -8t32 12t15.5 34.5t-15.5 35t-33 12.5t-36 -14.5t-50 -14.5t-55 42.5t-23.5 60.5q6 37 37 55q-225 49 -412 225q-94 90 -150.5 229.5t-56.5 302.5z" />
    <glyph glyph-name="Egrave" unicode="&#xc8;" horiz-adv-x="1306" 
d="M82 182v1139q0 104 39 142t147 38h807q47 0 70.5 -3t54.5 -19q55 -29 55 -160q0 -143 -75 -168q-35 -12 -107 -12h-629v-207h406q47 0 70.5 -3t54.5 -20q55 -29 55 -159q0 -143 -78 -168q-35 -12 -106 -13h-402v-207h631q47 0 70.5 -3t54.5 -19q55 -29 55 -160
q0 -143 -75 -168q-35 -12 -107 -12h-811q-143 0 -168 78q-12 33 -12 104zM383 1764.5q0 33.5 16 82.5q39 121 101 121q8 0 61 -14l338 -105q29 -10 43 -18q45 -20 45 -66.5t-16 -95.5q-40 -121 -101 -121l-61 15l-338 106q-55 16 -71.5 39t-16.5 56.5z" />
    <glyph glyph-name="Eacute" unicode="&#xc9;" horiz-adv-x="1306" 
d="M82 182v1139q0 104 39 142t147 38h807q47 0 70.5 -3t54.5 -19q55 -29 55 -160q0 -143 -75 -168q-35 -12 -107 -12h-629v-207h406q47 0 70.5 -3t54.5 -20q55 -29 55 -159q0 -143 -78 -168q-35 -12 -106 -13h-402v-207h631q47 0 70.5 -3t54.5 -19q55 -29 55 -160
q0 -143 -75 -168q-35 -12 -107 -12h-811q-143 0 -168 78q-12 33 -12 104zM412 1780q0 35 14 53q18 27 74 43l338 104q53 14 61 15q61 0 98 -121q16 -49 16.5 -83t-14.5 -52q-18 -27 -73 -43l-336 -107q-29 -14 -62 -14q-61 0 -100 121q-16 49 -16 84z" />
    <glyph glyph-name="Ecircumflex" unicode="&#xca;" horiz-adv-x="1306" 
d="M82 182v1139q0 104 39 142t147 38h807q47 0 70.5 -3t54.5 -19q55 -29 55 -160q0 -143 -75 -168q-35 -12 -107 -12h-629v-207h406q47 0 70.5 -3t54.5 -20q55 -29 55 -159q0 -143 -78 -168q-35 -12 -106 -13h-402v-207h631q47 0 70.5 -3t54.5 -19q55 -29 55 -160
q0 -143 -75 -168q-35 -12 -107 -12h-811q-143 0 -168 78q-12 33 -12 104zM252 1798q0 66 78 92l284 95l50 10l47 -10q190 -61 275 -90t85 -101q0 -39 -22 -82q-53 -109 -123 -108q-18 0 -66 14l-196 86l-191 -82h-2q-41 -14 -68 -14q-78 0 -127 104q-25 53 -24 86z" />
    <glyph glyph-name="Edieresis" unicode="&#xcb;" horiz-adv-x="1306" 
d="M82 182v1139q0 104 39 142t147 38h807q47 0 70.5 -3t54.5 -19q55 -29 55 -160q0 -143 -75 -168q-35 -12 -107 -12h-629v-207h406q47 0 70.5 -3t54.5 -20q55 -29 55 -159q0 -143 -78 -168q-35 -12 -106 -13h-402v-207h631q47 0 70.5 -3t54.5 -19q55 -29 55 -160
q0 -143 -75 -168q-35 -12 -107 -12h-811q-143 0 -168 78q-12 33 -12 104zM216 1813.5q1 50.5 4 72t18.5 52t55.5 43t105.5 12.5t104.5 -12.5t55 -44t19.5 -55t3.5 -72t-3.5 -72t-19.5 -54t-56 -43t-105.5 -12.5t-104.5 12.5t-55.5 44t-19.5 55t-2 74zM768 1812.5
q0 49.5 3 73t19.5 53t56.5 42t105.5 12.5t104.5 -12.5t55 -44t19.5 -55t3.5 -72t-3.5 -72t-19.5 -54t-56 -43t-105.5 -12.5t-104.5 12.5t-55.5 44t-19.5 55t-3 73z" />
    <glyph glyph-name="Igrave" unicode="&#xcc;" horiz-adv-x="546" 
d="M-100 1764.5q0 33.5 16 82.5q39 121 100 121q8 0 62 -14l338 -105q29 -10 43 -18q45 -20 45 -66.5t-17 -95.5q-39 -121 -100 -121l-61 15l-338 106q-55 16 -71.5 39t-16.5 56.5zM92 182v1139q0 47 3 70.5t20 54.5q29 55 159 55q143 0 168 -76q12 -35 13 -106v-1139
q0 -49 -3 -71.5t-20 -53.5q-29 -55 -160 -55q-143 0 -170 78q-10 33 -10 104z" />
    <glyph glyph-name="Iacute" unicode="&#xcd;" horiz-adv-x="550" 
d="M47 1780q0 35 14 53q18 27 74 43l338 104q53 14 62 15q61 0 98 -121q16 -49 16 -83t-14 -52q-18 -27 -74 -43l-336 -107q-29 -14 -61 -14q-61 0 -101 121q-16 49 -16 84zM94 182v1139q0 47 3 70.5t20 54.5q29 55 159 55q143 0 170 -76q10 -35 11 -106v-1139
q0 -49 -3 -71.5t-20 -53.5q-29 -55 -160 -55q-143 0 -168 78q-12 33 -12 104z" />
    <glyph glyph-name="Icircumflex" unicode="&#xce;" horiz-adv-x="552" 
d="M-133 1798q0 66 78 92l284 95l50 10l47 -10q190 -61 275 -90t85 -101q0 -39 -22 -82q-53 -109 -123 -108q-18 0 -66 14l-196 86l-191 -82h-2q-41 -14 -68 -14q-78 0 -127 104q-25 53 -24 86zM94 182v1139q0 47 3 70.5t20 54.5q29 55 159 55q143 0 170 -76q10 -35 11 -106
v-1139q0 -49 -3 -71.5t-20 -53.5q-29 -55 -160 -55q-143 0 -168 78q-12 33 -12 104z" />
    <glyph glyph-name="Idieresis" unicode="&#xcf;" horiz-adv-x="548" 
d="M-177 1813.5q1 50.5 4 72t18.5 52t55.5 43t105.5 12.5t104.5 -12.5t55 -44t19 -55t3 -72t-3 -72t-19 -54t-56 -43t-105.5 -12.5t-104.5 12.5t-55.5 44t-19.5 55t-2 74zM98 182v1139q0 47 3 70.5t20 54.5q29 55 160 55q143 0 168 -76q12 -35 12 -106v-1139q0 -49 -3 -71.5
t-20 -53.5q-29 -55 -159 -55q-143 0 -170 78q-10 33 -11 104zM375 1812.5q0 49.5 3 73t19.5 53t56.5 42t105.5 12.5t104 -12.5t55 -44t19.5 -55t3 -72t-3 -72t-19.5 -54t-56 -43t-105 -12.5t-104.5 12.5t-55.5 44t-19.5 55t-3 73z" />
    <glyph glyph-name="Eth" unicode="&#xd0;" 
d="M51 756q0 49 10.5 78.5t32.5 42.5q35 16 84 16h49v430q0 49 3 71.5t20 53.5q29 55 160 55l378 -2q297 0 522.5 -214t225.5 -526t-220 -535.5t-534 -223.5h-374q-125 0 -156 51q-25 43 -25 131v432h-51q-94 0 -115 60q-10 31 -10 80zM590 365h198q147 0 266.5 109.5
t119.5 275t-116 277.5t-272 112h-196v-246h51q94 0 115 -59q10 -31 10 -80t-9 -79t-32 -42q-29 -17 -86 -17h-49v-251z" />
    <glyph glyph-name="Ntilde" unicode="&#xd1;" horiz-adv-x="1474" 
d="M82 182v1143q0 78 19.5 114t58.5 48t100.5 12t97 -11t50.5 -26q8 -6 47 -53q432 -588 577 -776v692q0 78 19.5 114t58.5 48t97.5 12t94 -10t53 -24.5t25.5 -43.5q12 -33 13 -104v-1137q0 -49 -3.5 -71.5t-19.5 -53.5q-29 -55 -160 -55q-80 0 -110.5 12.5t-50.5 38.5
q-461 614 -607 803v-674q0 -49 -3 -71.5t-19 -53.5q-29 -55 -160 -55q-127 0 -156 55q-16 31 -19 55.5t-3 71.5zM328 1752q0 32 16 58.5t22.5 38t30 39t52.5 49.5q76 55 157.5 55.5t126.5 -25t74 -51.5t47 -26q33 0 53 25q43 78 92 78q31 0 74 -31q74 -51 74 -98
q0 -29 -16.5 -55.5t-22.5 -38t-28.5 -40t-51.5 -51.5q-78 -57 -157.5 -57t-126 26.5t-76 53.5t-47.5 27q-29 0 -54 -25q-47 -82 -87 -82t-96 49t-56 81z" />
    <glyph glyph-name="Ograve" unicode="&#xd2;" 
d="M51 737q0 170 61.5 318.5t164 249t235.5 158t274 57.5q303 0 526.5 -219.5t223.5 -544t-213 -553t-524.5 -228.5t-529.5 225.5t-218 536.5zM414 747.5q0 -182.5 117.5 -296t263 -113.5t262.5 110.5t117 297t-118 299t-263.5 112.5t-262 -113.5t-116.5 -296zM446 1764.5
q0 33.5 17 82.5q39 121 100 121q8 0 62 -14l338 -105q29 -10 45 -18q43 -20 43 -66.5t-17 -95.5q-39 -121 -100 -121q-18 0 -62 15l-337 106q-55 16 -72 39t-17 56.5z" />
    <glyph glyph-name="Oacute" unicode="&#xd3;" 
d="M51 737q0 170 61.5 318.5t164 249t235.5 158t274 57.5q303 0 526.5 -219.5t223.5 -544t-213 -553t-524.5 -228.5t-529.5 225.5t-218 536.5zM414 747.5q0 -182.5 117.5 -296t263 -113.5t262.5 110.5t117 297t-118 299t-263.5 112.5t-262 -113.5t-116.5 -296zM537 1780
q0 35 12 53q20 27 76 43l338 104q53 14 61 15q61 0 98 -121q16 -49 16.5 -83t-12.5 -52q-20 -27 -75 -43l-336 -107l-62 -14q-61 0 -100 121q-16 49 -16 84z" />
    <glyph glyph-name="Ocircumflex" unicode="&#xd4;" 
d="M51 737q0 170 61.5 318.5t164 249t235.5 158t274 57.5q303 0 526.5 -219.5t223.5 -544t-213 -553t-524.5 -228.5t-529.5 225.5t-218 536.5zM387 1798q0 66 78 92l285 95l49 10l47 -10q190 -61 275 -90t85 -101q0 -39 -22 -82q-53 -109 -123 -108q-18 0 -66 14l-196 86
l-191 -82h-2q-41 -14 -67 -14q-78 0 -127 104q-25 53 -25 86zM414 747.5q0 -182.5 117.5 -296t263 -113.5t262.5 110.5t117 297t-118 299t-263.5 112.5t-262 -113.5t-116.5 -296z" />
    <glyph glyph-name="Otilde" unicode="&#xd5;" 
d="M51 737q0 170 61.5 318.5t164 249t235.5 158t274 57.5q303 0 526.5 -219.5t223.5 -544t-213 -553t-524.5 -228.5t-529.5 225.5t-218 536.5zM414 747.5q0 -182.5 117.5 -296t263 -113.5t262.5 110.5t117 297t-118 299t-263.5 112.5t-262 -113.5t-116.5 -296zM428 1752
q0 32 16.5 58.5t22.5 38t29.5 39t52.5 49.5q76 55 157.5 55.5t127 -25t74 -51.5t46.5 -26q37 0 54 25q43 78 92 78q31 0 74 -31q74 -51 73 -98q0 -29 -16.5 -55.5t-22.5 -38t-28.5 -40t-51.5 -51.5q-78 -57 -157.5 -57t-125.5 26.5t-76 53.5t-48 27q-29 0 -53 -25
q-47 -82 -87 -82t-96.5 49t-56.5 81z" />
    <glyph glyph-name="Odieresis" unicode="&#xd6;" 
d="M51 737q0 170 61.5 318.5t164 249t235.5 158t274 57.5q303 0 526.5 -219.5t223.5 -544t-213 -553t-524.5 -228.5t-529.5 225.5t-218 536.5zM327 1813.5q1 50.5 4 72t18.5 52t55 43t105 12.5t104.5 -12.5t55.5 -44t19.5 -55t3 -72t-3 -72t-19.5 -54t-56.5 -43
t-105.5 -12.5t-104 12.5t-55 44t-19.5 55t-2 74zM414 747.5q0 -182.5 117.5 -296t263 -113.5t262.5 110.5t117 297t-118 299t-263.5 112.5t-262 -113.5t-116.5 -296zM879 1812.5q0 49.5 3 73t19.5 53t56 42t105 12.5t104.5 -12.5t55.5 -44t19.5 -55t3 -72t-3 -72t-19.5 -54
t-56.5 -43t-105.5 -12.5t-104 12.5t-55 44t-19.5 55t-3 73z" />
    <glyph glyph-name="multiply" unicode="&#xd7;" horiz-adv-x="1067" 
d="M51 239.5q0 49.5 68 116.5l186 187l-188 188q-66 66 -66 112t66.5 112.5t116 66.5t114.5 -66l184 -186l187 186q66 66 115 66t115.5 -66.5t66.5 -112.5t-70 -116l-184 -184l186 -187q68 -68 68 -117t-64.5 -113.5t-115 -64.5t-115.5 66l-189 188l-186 -188
q-66 -66 -116 -66t-114.5 64.5t-64.5 114z" />
    <glyph glyph-name="Oslash" unicode="&#xd8;" 
d="M51 734q0 173 61.5 321.5t164 249t235.5 158t255 57.5t214 -27q33 84 74 100q16 8 48 8.5t103 -32.5q111 -53 111 -117q0 -39 -37 -121q256 -229 256 -586q0 -313 -213 -541.5t-518 -228.5q-78 1 -170 21q-37 -111 -111 -111q-41 0 -108.5 31t-91 54.5t-23.5 52t25 102.5
l8 16q-133 106 -208 263t-75 330zM414 762q0 -168 84 -275l321 668q-8 2 -24 2q-148 0 -264.5 -113.5t-116.5 -281.5zM801 338q145 4 259 115t114 295q0 131 -66 229z" />
    <glyph glyph-name="Ugrave" unicode="&#xd9;" horiz-adv-x="1486" 
d="M82 705v616q0 49 3 72.5t19.5 54.5t55.5 43t104.5 12t104.5 -12t53 -43q25 -47 24 -129v-614q0 -125 62 -238q31 -57 92.5 -92t144.5 -35q150 0 223.5 110.5t73.5 256.5v626q0 80 20.5 113t59.5 45t97.5 12t93.5 -10t53 -24.5t27 -43.5q12 -35 12 -106v-619
q0 -270 -168 -491q-82 -104 -211 -169t-285.5 -65t-284.5 65.5t-208 172.5q-166 217 -166 492zM326 1764.5q0 33.5 16 82.5q39 121 100 121q8 0 62 -14l338 -105q29 -10 43 -18q45 -20 45 -66.5t-17 -95.5q-39 -121 -100 -121l-61 15l-338 106q-55 16 -71.5 39t-16.5 56.5z
" />
    <glyph glyph-name="Uacute" unicode="&#xda;" horiz-adv-x="1486" 
d="M82 705v616q0 49 3 72.5t19.5 54.5t55.5 43t104.5 12t104.5 -12t53 -43q25 -47 24 -129v-614q0 -125 62 -238q31 -57 92.5 -92t144.5 -35q150 0 223.5 110.5t73.5 256.5v626q0 80 20.5 113t59.5 45t97.5 12t93.5 -10t53 -24.5t27 -43.5q12 -35 12 -106v-619
q0 -270 -168 -491q-82 -104 -211 -169t-285.5 -65t-284.5 65.5t-208 172.5q-166 217 -166 492zM537 1780q0 35 12 53q20 27 76 43l338 104q53 14 61 15q61 0 98 -121q16 -49 16.5 -83t-12.5 -52q-20 -27 -75 -43l-336 -107l-62 -14q-61 0 -100 121q-16 49 -16 84z" />
    <glyph glyph-name="Ucircumflex" unicode="&#xdb;" horiz-adv-x="1486" 
d="M82 705v616q0 49 3 72.5t19.5 54.5t55.5 43t104.5 12t104.5 -12t53 -43q25 -47 24 -129v-614q0 -125 62 -238q31 -57 92.5 -92t144.5 -35q150 0 223.5 110.5t73.5 256.5v626q0 80 20.5 113t59.5 45t97.5 12t93.5 -10t53 -24.5t27 -43.5q12 -35 12 -106v-619
q0 -270 -168 -491q-82 -104 -211 -169t-285.5 -65t-284.5 65.5t-208 172.5q-166 217 -166 492zM360 1798q0 66 78 92l285 95l49 10l47 -10q190 -61 275.5 -90t85.5 -101q0 -39 -23 -82q-55 -109 -123 -108q-18 0 -65 14l-197 86l-190 -82q-29 -14 -70 -14q-78 0 -127 104
q-25 53 -25 86z" />
    <glyph glyph-name="Udieresis" unicode="&#xdc;" horiz-adv-x="1486" 
d="M82 705v616q0 49 3 72.5t19.5 54.5t55.5 43t104.5 12t104.5 -12t53 -43q25 -47 24 -129v-614q0 -125 62 -238q31 -57 92.5 -92t144.5 -35q150 0 223.5 110.5t73.5 256.5v626q0 80 20.5 113t59.5 45t97.5 12t93.5 -10t53 -24.5t27 -43.5q12 -35 12 -106v-619
q0 -270 -168 -491q-82 -104 -211 -169t-285.5 -65t-284.5 65.5t-208 172.5q-166 217 -166 492zM286 1813.5q1 50.5 4 72t18.5 52t55 43t105.5 12.5t104.5 -12.5t55 -44t19.5 -55t3 -72t-3 -72t-19.5 -54t-56.5 -43t-105.5 -12.5t-104 12.5t-55 44t-19.5 55t-2 74z
M838 1812.5q0 49.5 3 73t19.5 53t56 42t105 12.5t104.5 -12.5t55.5 -44t19.5 -55t3 -72t-3 -72t-19.5 -54t-56.5 -43t-105.5 -12.5t-104 12.5t-55 44t-19.5 55t-3 73z" />
    <glyph glyph-name="Yacute" unicode="&#xdd;" horiz-adv-x="1404" 
d="M31 1337q0 66 90 126.5t129 60.5t61 -17q35 -23 74 -84l317 -508l318 508q39 61 67.5 81t66.5 20t120 -51q100 -70 100 -136q0 -39 -47 -108l-442 -662v-391q0 -47 -3 -70.5t-19.5 -54.5t-55.5 -43t-104.5 -12t-104.5 12t-55.5 44t-19.5 55.5t-3 72.5v387l-442 662
q-47 70 -47 108zM440.5 1780q-0.5 35 14.5 53q18 27 73 43l338 104q53 14 62 15q61 0 98 -121q16 -49 16 -83t-14 -52q-18 -27 -74 -43l-336 -107q-29 -14 -61 -14q-61 0 -100 121q-16 49 -16.5 84z" />
    <glyph glyph-name="Thorn" unicode="&#xde;" horiz-adv-x="1298" 
d="M82 184v1137q0 47 3 70.5t19 54.5q29 55 160 55q143 0 170 -76q10 -35 10 -106v-25h258q180 0 351 -131q84 -63 137 -171.5t53 -242t-53 -241t-137 -170.5q-170 -131 -353 -131h-256v-25q0 -47 -3 -70.5t-19 -54.5q-29 -55 -160 -55q-143 0 -168 76q-12 35 -12 106z
M444 569h258q62 0 121.5 45t59.5 135.5t-59.5 136.5t-123.5 46h-256v-363z" />
    <glyph glyph-name="germandbls" unicode="&#xdf;" horiz-adv-x="1296" 
d="M82 113v948q0 174 41 266t172 152.5t321 60.5q446 0 447 -283q0 -111 -44 -190.5t-87 -124.5t-43 -76.5t37 -66.5t89 -68t104 -76t89 -118.5t37 -176.5q0 -367 -375 -366q-74 0 -165 14.5t-129.5 41t-38.5 80.5t14 112q31 119 96 118q27 0 96.5 -27.5t96.5 -27.5
q70 0 69 113q0 31 -53 70.5t-116.5 77.5t-117 111t-53.5 153.5t23.5 138t50.5 86.5q76 78 76 133q0 51 -98 51q-184 0 -185 -160v-970q0 -47 -3 -70t-18.5 -51.5t-54 -41t-102 -12.5t-101.5 12.5t-53.5 42t-18.5 53.5t-3 71z" />
    <glyph glyph-name="agrave" unicode="&#xe0;" horiz-adv-x="1220" 
d="M51 542q0 214 152.5 374.5t335.5 160.5q70 0 127 -24.5t79.5 -46t36.5 -41.5q12 115 162 114q80 0 119 -12t54.5 -43t18.5 -54.5t3 -70.5v-717q0 -47 -3 -70.5t-18 -54.5q-29 -53 -140.5 -53t-149 27.5t-44.5 81.5q-76 -109 -253 -109t-328.5 162t-151.5 376zM336 1381.5
q0 33.5 16 82.5q39 121 101 121q8 0 61 -14l338 -105q29 -10 45 -16q43 -23 43 -69t-16 -95q-40 -121 -101 -121q-29 0 -61 15l-338 106q-55 16 -71.5 39t-16.5 56.5zM410 538.5q0 -67.5 53 -122t129 -54.5t126 55.5t50 122t-48 124t-129 57.5t-131 -57.5t-50 -125z" />
    <glyph glyph-name="aacute" unicode="&#xe1;" horiz-adv-x="1220" 
d="M51 542q0 214 152.5 374.5t335.5 160.5q70 0 127 -24.5t79.5 -46t36.5 -41.5q12 115 162 114q80 0 119 -12t54.5 -43t18.5 -54.5t3 -70.5v-717q0 -47 -3 -70.5t-18 -54.5q-29 -53 -140.5 -53t-149 27.5t-44.5 81.5q-76 -109 -253 -109t-328.5 162t-151.5 376zM365 1370
q0 35 12 53q20 27 76 43l338 105q53 14 61 14q61 0 98 -121q16 -49 16.5 -82.5t-12.5 -52.5q-20 -27 -75 -43l-336 -106l-62 -15q-61 0 -100 121q-16 49 -16 84zM410 538.5q0 -67.5 53 -122t129 -54.5t126 55.5t50 122t-48 124t-129 57.5t-131 -57.5t-50 -125z" />
    <glyph glyph-name="acircumflex" unicode="&#xe2;" horiz-adv-x="1220" 
d="M51 542q0 214 152.5 374.5t335.5 160.5q70 0 127 -24.5t79.5 -46t36.5 -41.5q12 115 162 114q80 0 119 -12t54.5 -43t18.5 -54.5t3 -70.5v-717q0 -47 -3 -70.5t-18 -54.5q-29 -53 -140.5 -53t-149 27.5t-44.5 81.5q-76 -109 -253 -109t-328.5 162t-151.5 376zM258 1389
q0 66 78 92l285 94l49 10l47 -10q190 -61 275 -90t85 -101q0 -39 -22 -81q-55 -109 -123 -109q-18 0 -66 14l-196 86l-191 -82q-29 -14 -69 -14q-78 0 -127 105q-25 53 -25 86zM410 538.5q0 -67.5 53 -122t129 -54.5t126 55.5t50 122t-48 124t-129 57.5t-131 -57.5t-50 -125
z" />
    <glyph glyph-name="atilde" unicode="&#xe3;" horiz-adv-x="1220" 
d="M51 542q0 214 152.5 374.5t335.5 160.5q70 0 127 -24.5t79.5 -46t36.5 -41.5q12 115 162 114q80 0 119 -12t54.5 -43t18.5 -54.5t3 -70.5v-717q0 -47 -3 -70.5t-18 -54.5q-29 -53 -140.5 -53t-149 27.5t-44.5 81.5q-76 -109 -253 -109t-328.5 162t-151.5 376zM256 1342.5
q0 31.5 16.5 58t22.5 38t29.5 39t52.5 50.5q76 55 178 55q94 0 180 -76q29 -27 47 -26q37 0 54 24q43 78 92 78q30 0 73 -31q74 -51 74 -98q0 -29 -16.5 -55.5t-22.5 -37.5t-28.5 -40t-51.5 -51q-78 -57 -157.5 -57.5t-125.5 26.5t-76 53.5t-48 26.5q-29 0 -53 -25
q-47 -82 -87 -82t-96.5 49.5t-56.5 81zM410 538.5q0 -67.5 53 -122t129 -54.5t126 55.5t50 122t-48 124t-129 57.5t-131 -57.5t-50 -125z" />
    <glyph glyph-name="adieresis" unicode="&#xe4;" horiz-adv-x="1220" 
d="M51 542q0 214 152.5 374.5t335.5 160.5q70 0 127 -24.5t79.5 -46t36.5 -41.5q12 115 162 114q80 0 119 -12t54.5 -43t18.5 -54.5t3 -70.5v-717q0 -47 -3 -70.5t-18 -54.5q-29 -53 -140.5 -53t-149 27.5t-44.5 81.5q-76 -109 -253 -109t-328.5 162t-151.5 376zM208 1404
q1 50 4 71.5t18.5 52.5t55.5 43t105.5 12t104.5 -12t55 -44t19 -55.5t3 -71.5t-3 -71.5t-19 -54.5t-56 -43t-105.5 -12t-104.5 12t-55.5 44t-19.5 55.5t-2 73.5zM410 538.5q0 -67.5 53 -122t129 -54.5t126 55.5t50 122t-48 124t-129 57.5t-131 -57.5t-50 -125zM760 1403
q0 49 3 72.5t19.5 53.5t56.5 42t105.5 12t104 -12t55 -44t19.5 -55.5t3 -71.5t-3 -71.5t-19.5 -54.5t-56 -43t-105 -12t-104.5 12t-55.5 44t-19.5 55.5t-3 72.5z" />
    <glyph glyph-name="aring" unicode="&#xe5;" horiz-adv-x="1220" 
d="M51 542q0 214 152.5 374.5t335.5 160.5q70 0 127 -24.5t79.5 -46t36.5 -41.5q12 115 162 114q80 0 119 -12t54.5 -43t18.5 -54.5t3 -70.5v-717q0 -47 -3 -70.5t-18 -54.5q-29 -53 -140.5 -53t-149 27.5t-44.5 81.5q-76 -109 -253 -109t-328.5 162t-151.5 376zM410 538.5
q0 -67.5 53 -122t129 -54.5t126 55.5t50 122t-48 124t-129 57.5t-131 -57.5t-50 -125zM463 1329q0 90 64.5 149.5t146.5 59.5t144.5 -58.5t62.5 -150.5t-64.5 -149.5t-143.5 -57.5t-144.5 58.5t-65.5 148.5zM573 1330q0 -48 32 -72.5t67 -24.5t66.5 24.5t31.5 73.5t-30.5 74
t-66.5 25t-68 -26t-32 -74z" />
    <glyph glyph-name="ae" unicode="&#xe6;" horiz-adv-x="1863" 
d="M51 305q0 133 119 200.5t297 67.5t272 -63v12q-20 242 -172 242q-90 0 -157.5 -71.5t-130 -71.5t-131 81.5t-68.5 135t65.5 114t174 102.5t241.5 42q213 0 367 -148q158 141 401 142q119 0 216 -40t153 -104q115 -129 114.5 -265t-62.5 -194.5t-138 -58.5h-477
q0 -57 66.5 -96t131.5 -39q121 0 187 24l20 9q53 20 80 20q68 0 113 -88q27 -53 26.5 -92t-23 -66.5t-43 -37t-38 -15.5t-20.5 -7t-5 -3q-141 -51 -301 -51q-281 0 -436 174l-4 -8q-80 -82 -179.5 -126t-285.5 -44q-373 0 -373 323zM365 317q0 -94 137 -94q78 0 152.5 30
t113.5 79l-6 18q-94 37 -245.5 37t-151.5 -70zM1133 610h258q72 0 71 64q0 47 -35.5 75.5t-100 28.5t-129 -53t-64.5 -115z" />
    <glyph glyph-name="ccedilla" unicode="&#xe7;" horiz-adv-x="1073" 
d="M51 547q0 131 53.5 240.5t137.5 175.5q178 139 370 139q80 0 154 -20.5t108 -41.5l35 -22q39 -25 58 -39q55 -43 55 -94t-45 -123q-74 -113 -143 -113q-39 0 -111 45q-39 35 -108.5 35t-129 -48t-59.5 -137t58.5 -138.5t124 -49.5t121.5 38t91 38q61 0 154 -110
q47 -59 47 -109q0 -76 -113 -147q-66 -45 -170 -68q72 -63 72 -166.5t-72.5 -164t-156.5 -60.5q-55 0 -84 16q-80 41 -84 80l-2 10q0 25 31.5 63t54 38t37 -9.5t22.5 -11.5q8 -8 25.5 -8t33 12.5t15.5 36t-15.5 35.5t-33 12t-27.5 -10q-33 -20 -60.5 -20.5t-55 43
t-27.5 63.5q6 35 32 55q-166 53 -279.5 191.5t-113.5 343.5z" />
    <glyph glyph-name="egrave" unicode="&#xe8;" horiz-adv-x="1173" 
d="M51 535q0 258 167 412.5t417 154.5q285 0 418 -201q70 -106 69.5 -232t-63 -186.5t-137.5 -60.5h-486q0 -57 67.5 -96t135.5 -39q119 0 186 24l23 8q49 23 82 23q66 0 112 -92q27 -55 27 -94q0 -182 -436 -183q-152 0 -269.5 52.5t-183.5 138.5q-129 166 -129 371z
M289 1381.5q0 33.5 16 82.5q39 121 101 121q8 0 61 -14l338 -105q29 -10 43 -16q45 -23 45 -69t-16 -95q-40 -121 -101 -121l-61 15l-338 106q-55 16 -71.5 39t-16.5 56.5zM432 608h258q78 0 78 66q0 47 -36 75.5t-102.5 28.5t-132 -54t-65.5 -116z" />
    <glyph glyph-name="eacute" unicode="&#xe9;" horiz-adv-x="1173" 
d="M51 535q0 258 167 412.5t417 154.5q285 0 418 -201q70 -106 69.5 -232t-63 -186.5t-137.5 -60.5h-486q0 -57 67.5 -96t135.5 -39q119 0 186 24l23 8q49 23 82 23q66 0 112 -92q27 -55 27 -94q0 -182 -436 -183q-152 0 -269.5 52.5t-183.5 138.5q-129 166 -129 371z
M346 1370q0 35 14 53q18 27 74 43l338 105q53 14 62 14q61 0 98 -121q16 -49 16 -82.5t-14 -52.5q-18 -27 -74 -43l-336 -106q-29 -14 -61 -15q-61 0 -101 121q-16 49 -16 84zM432 608h258q78 0 78 66q0 47 -36 75.5t-102.5 28.5t-132 -54t-65.5 -116z" />
    <glyph glyph-name="ecircumflex" unicode="&#xea;" horiz-adv-x="1173" 
d="M51 535q0 258 167 412.5t417 154.5q285 0 418 -201q70 -106 69.5 -232t-63 -186.5t-137.5 -60.5h-486q0 -57 67.5 -96t135.5 -39q119 0 186 24l23 8q49 23 82 23q66 0 112 -92q27 -55 27 -94q0 -182 -436 -183q-152 0 -269.5 52.5t-183.5 138.5q-129 166 -129 371z
M197 1389q0 66 77 92l285 94l49 10l47 -10q190 -61 275.5 -90t85.5 -101q0 -39 -23 -81q-55 -109 -123 -109q-18 0 -65 14l-197 86l-190 -82q-29 -14 -70 -14q-78 0 -127 105q-25 53 -24 86zM432 608h258q78 0 78 66q0 47 -36 75.5t-102.5 28.5t-132 -54t-65.5 -116z" />
    <glyph glyph-name="edieresis" unicode="&#xeb;" horiz-adv-x="1173" 
d="M51 535q0 258 167 412.5t417 154.5q285 0 418 -201q70 -106 69.5 -232t-63 -186.5t-137.5 -60.5h-486q0 -57 67.5 -96t135.5 -39q119 0 186 24l23 8q49 23 82 23q66 0 112 -92q27 -55 27 -94q0 -182 -436 -183q-152 0 -269.5 52.5t-183.5 138.5q-129 166 -129 371z
M132 1404q1 50 4 71.5t18.5 52.5t55.5 43t105.5 12t104.5 -12t55.5 -44t19.5 -55.5t3 -71.5t-3 -71.5t-19.5 -54.5t-56.5 -43t-105.5 -12t-104.5 12t-55.5 44t-19.5 55.5t-2 73.5zM432 608h258q78 0 78 66q0 47 -36 75.5t-102.5 28.5t-132 -54t-65.5 -116zM684 1403
q0 49 3 72.5t19.5 53.5t56.5 42t105.5 12t104.5 -12t55 -44t19.5 -55.5t3.5 -71.5t-3.5 -71.5t-19.5 -54.5t-56 -43t-105.5 -12t-104.5 12t-55.5 44t-19.5 55.5t-3 72.5z" />
    <glyph glyph-name="igrave" unicode="&#xec;" horiz-adv-x="522" 
d="M-96 1381.5q0 33.5 16 82.5q39 121 100 121q8 0 62 -14l338 -105q29 -10 43 -16q45 -23 45 -69t-16 -95q-40 -121 -101 -121l-61 15l-338 106q-55 16 -71.5 39t-16.5 56.5zM82 180v719q0 47 3 70.5t17 54.5q29 53 160 53q98 0 139 -35q35 -29 37 -88q2 -20 2 -59v-717
q0 -47 -3 -70.5t-19 -54.5q-27 -53 -158 -53q-129 0 -158 55q-14 31 -17 53.5t-3 71.5z" />
    <glyph glyph-name="iacute" unicode="&#xed;" horiz-adv-x="522" 
d="M33 1370q0 35 12 53q20 27 76 43l338 105q53 14 61 14q61 0 98 -121q16 -49 16.5 -82.5t-11.5 -52.5q-20 -27 -76 -43l-336 -106l-61 -15q-61 0 -101 121q-16 49 -16 84zM82 180v719q0 47 3 70.5t17 54.5q29 53 160 53q98 0 139 -35q35 -29 37 -88q2 -20 2 -59v-717
q0 -47 -3 -70.5t-19 -54.5q-27 -53 -158 -53q-129 0 -158 55q-14 31 -17 53.5t-3 71.5z" />
    <glyph glyph-name="icircumflex" unicode="&#xee;" horiz-adv-x="522" 
d="M-147 1389q0 66 77 92l285 94l49 10l47 -10q190 -61 275.5 -90t85.5 -101q0 -39 -23 -81q-55 -109 -123 -109q-18 0 -65 14l-197 86l-190 -82q-29 -14 -70 -14q-78 0 -127 105q-25 53 -24 86zM82 180v719q0 47 3 70.5t17 54.5q29 53 160 53q98 0 139 -35q35 -29 37 -88
q2 -20 2 -59v-717q0 -47 -3 -70.5t-19 -54.5q-27 -53 -158 -53q-129 0 -158 55q-14 31 -17 53.5t-3 71.5z" />
    <glyph glyph-name="idieresis" unicode="&#xef;" horiz-adv-x="522" 
d="M-196 1404q1 50 4.5 71.5t18.5 52.5t55 43t105.5 12t104.5 -12t55.5 -44t19.5 -55.5t3 -71.5t-3 -71.5t-19.5 -54.5t-56.5 -43t-105.5 -12t-104.5 12t-55 44t-19.5 55.5t-2.5 73.5zM84 180v719q0 47 3 70.5t17 54.5q29 53 160 53q98 0 139 -35q35 -29 37 -88q2 -20 2 -59
v-717q0 -47 -3 -70.5t-19 -54.5q-27 -53 -158 -53q-129 0 -158 55q-14 31 -17 53.5t-3 71.5zM356 1403q0 49 3 72.5t19.5 53.5t56.5 42t105.5 12t104.5 -12t55.5 -44t19.5 -55.5t3 -71.5t-3 -71.5t-19.5 -54.5t-56.5 -43t-105.5 -12t-104.5 12t-55.5 44t-19.5 55.5t-3 72.5z
" />
    <glyph glyph-name="eth" unicode="&#xf0;" horiz-adv-x="1198" 
d="M51 522q0 115 48 217.5t124 170t166 106.5t183.5 39t151.5 -24.5t120 -72.5q-109 186 -262 269l-64 -84q-35 -47 -59.5 -47t-57.5 20q-59 35 -59 70q0 18 27 53l47 64l-6 2q-2 2 -36 19t-45.5 32.5t-11.5 46.5t29 86q45 86 107 86q31 0 133 -45l49 65q4 4 11 15.5
t11.5 16.5t10.5 11q16 12 36.5 12.5t53.5 -22.5q55 -33 55.5 -60.5t-22.5 -62.5l-50 -65q406 -295 406 -846q0 -33 -4 -98q-12 -195 -167 -354.5t-370 -159.5t-385 152.5t-170 387.5zM403 526.5q0 -96.5 63.5 -144.5t130.5 -48t131.5 48t64.5 146.5t-61.5 145.5t-133.5 47
t-133.5 -49t-61.5 -145.5z" />
    <glyph glyph-name="ntilde" unicode="&#xf1;" horiz-adv-x="1241" 
d="M82 182v725q0 45 3 68.5t19 52.5q29 51 158 51q125 0 154 -47q20 -35 20 -84q8 14 37 41t55 43q70 47 154 47q205 0 341 -156.5t136 -381.5v-361q0 -47 -3 -70.5t-17 -52.5q-29 -55 -160 -55q-145 0 -168 76q-12 35 -12 104v361q0 84 -48.5 131t-129 47t-131 -49
t-50.5 -129v-363q0 -47 -3 -70.5t-19 -52.5q-27 -55 -158 -55q-129 0 -158 55q-14 31 -17 54.5t-3 70.5zM217 1342.5q0 31.5 16.5 58t22.5 38t29.5 39t52.5 50.5q76 55 158 55t127 -25.5t73.5 -51t46.5 -25.5q33 0 54 24q43 78 92 78q31 0 74 -31q74 -51 73 -98
q0 -29 -16 -55.5t-22.5 -37.5t-29 -40t-50.5 -51q-78 -57 -158 -57.5t-126 26.5t-76 53.5t-48 26.5q-29 0 -53 -25q-47 -82 -87 -82t-96.5 49.5t-56.5 81z" />
    <glyph glyph-name="ograve" unicode="&#xf2;" horiz-adv-x="1228" 
d="M51 539q0 245 172 405t393.5 160t391.5 -159t170 -404q0 -170 -88.5 -302.5t-214 -194.5t-261 -62t-262.5 66.5t-214 196.5t-87 294zM309 1381.5q0 33.5 17 82.5q39 121 100 121q8 0 61 -14l338 -105q29 -10 43 -16q45 -23 45 -69t-16 -95q-39 -121 -100 -121l-62 15
l-338 106q-55 16 -71.5 39t-16.5 56.5zM414 541.5q0 -99.5 65.5 -149.5t133 -50t135 51t67.5 151.5t-63.5 149.5t-137 49t-137 -51t-63.5 -150.5z" />
    <glyph glyph-name="oacute" unicode="&#xf3;" horiz-adv-x="1228" 
d="M51 539q0 245 172 405t393.5 160t391.5 -159t170 -404q0 -170 -88.5 -302.5t-214 -194.5t-261 -62t-262.5 66.5t-214 196.5t-87 294zM360.5 1370q-0.5 35 12.5 53q20 27 76 43l337 105q53 14 62 14q61 0 98 -121q16 -49 16.5 -82.5t-12.5 -52.5q-20 -27 -76 -43
l-335 -106l-62 -15q-61 0 -100 121q-16 49 -16.5 84zM414 541.5q0 -99.5 65.5 -149.5t133 -50t135 51t67.5 151.5t-63.5 149.5t-137 49t-137 -51t-63.5 -150.5z" />
    <glyph glyph-name="ocircumflex" unicode="&#xf4;" horiz-adv-x="1228" 
d="M51 539q0 245 172 405t393.5 160t391.5 -159t170 -404q0 -170 -88.5 -302.5t-214 -194.5t-261 -62t-262.5 66.5t-214 196.5t-87 294zM211 1389q0 66 78 92l284 94l50 10l47 -10q190 -61 275 -90t85 -101q0 -39 -22 -81q-53 -109 -123 -109q-18 0 -66 14l-196 86l-191 -82
h-2q-41 -14 -68 -14q-78 0 -126 105q-25 53 -25 86zM414 541.5q0 -99.5 65.5 -149.5t133 -50t135 51t67.5 151.5t-63.5 149.5t-137 49t-137 -51t-63.5 -150.5z" />
    <glyph glyph-name="otilde" unicode="&#xf5;" horiz-adv-x="1228" 
d="M51 539q0 245 172 405t393.5 160t391.5 -159t170 -404q0 -170 -88.5 -302.5t-214 -194.5t-261 -62t-262.5 66.5t-214 196.5t-87 294zM209 1342.5q0 31.5 16.5 58t22.5 38t29.5 39t52.5 50.5q76 55 157.5 55t126.5 -25.5t74 -51t47 -25.5q33 0 53 24q43 78 93 78
q30 0 73 -31q74 -51 74 -98q0 -29 -16.5 -55.5t-22.5 -37.5t-28.5 -40t-51.5 -51q-78 -57 -157.5 -57.5t-125.5 26.5t-76 53.5t-48 26.5q-29 0 -53 -25q-47 -82 -87 -82t-96.5 49.5t-56.5 81zM414 541.5q0 -99.5 65.5 -149.5t133 -50t135 51t67.5 151.5t-63.5 149.5t-137 49
t-137 -51t-63.5 -150.5z" />
    <glyph glyph-name="odieresis" unicode="&#xf6;" horiz-adv-x="1228" 
d="M51 539q0 245 172 405t393.5 160t391.5 -159t170 -404q0 -170 -88.5 -302.5t-214 -194.5t-261 -62t-262.5 66.5t-214 196.5t-87 294zM146 1404q1 50 4.5 71.5t18.5 52.5t55 43t105.5 12t104.5 -12t55.5 -44t19.5 -55.5t3 -71.5t-3 -71.5t-19.5 -54.5t-56.5 -43
t-105.5 -12t-104.5 12t-55 44t-19.5 55.5t-2.5 73.5zM414 541.5q0 -99.5 65.5 -149.5t133 -50t135 51t67.5 151.5t-63.5 149.5t-137 49t-137 -51t-63.5 -150.5zM698 1403q0 49 3.5 72.5t19.5 53.5t56 42t105.5 12t104.5 -12t55.5 -44t19.5 -55.5t3 -71.5t-3 -71.5
t-19.5 -54.5t-56.5 -43t-105.5 -12t-104.5 12t-55 44t-19.5 55.5t-3.5 72.5z" />
    <glyph glyph-name="divide" unicode="&#xf7;" horiz-adv-x="1030" 
d="M51 562q0 52 12.5 84t38.5 44q41 18 101 19h626q117 0 138 -62q12 -33 12 -86t-10.5 -84t-34.5 -43q-37 -20 -107 -20h-632q-109 0 -134 65q-10 31 -10 83zM349 145.5q1 71.5 4 92t17.5 48t50.5 40t113.5 12.5t112.5 -35t35 -127v-8q0 -72 -18 -107q-29 -57 -137.5 -57
t-145.5 39q-33 31 -32 102.5zM349 926.5q1 70.5 4 91t18 47.5q27 53 133 53t147 -37q31 -31 31 -125v-8q0 -72 -17.5 -105.5t-54.5 -46t-114.5 -12.5t-112.5 36t-34 106.5z" />
    <glyph glyph-name="oslash" unicode="&#xf8;" horiz-adv-x="1228" 
d="M51 538.5q0 243.5 172 403.5t389 160q39 0 80 -6l99 204q39 78 69 93q16 6 48 6t104 -33q111 -53 110 -117q0 -27 -28 -102l-95 -197q178 -164 179 -411q0 -170 -88.5 -302.5t-214 -194.5t-259.5 -62q-43 0 -81 6l-99 -205q-16 -35 -25.5 -51.5t-31 -31.5t-56 -15
t-102 30.5t-91.5 54t-24 64.5t25 90l100 209q-180 164 -180 407.5zM414 539.5q0 -99.5 65.5 -149.5t133 -50t135 51t67.5 151.5t-63.5 149.5t-137 49t-137 -51t-63.5 -150.5z" />
    <glyph glyph-name="ugrave" unicode="&#xf9;" horiz-adv-x="1241" 
d="M82 543v358q0 49 3 71.5t17 53.5q29 55 160 55q143 0 168 -77q12 -33 12 -105v-358q0 -84 48.5 -131.5t129 -47.5t131 49.5t50.5 129.5v362q0 47 3 70.5t19 54.5q27 53 158 53q129 0 158 -55q14 -31 17 -54.5t3 -70.5v-725q0 -45 -3 -68.5t-19 -52.5q-31 -53 -158 -53
q-125 0 -154 49q-20 35 -20 84q-8 -14 -37 -40.5t-55 -45.5q-70 -45 -152 -45q-207 0 -343 156.5t-136 382.5zM307 1381.5q0 33.5 17 82.5q39 121 100 121q8 0 61 -14l338 -105q29 -10 45 -16q43 -23 43 -69t-16 -95q-39 -121 -100 -121q-29 0 -62 15l-338 106
q-55 16 -71.5 39t-16.5 56.5z" />
    <glyph glyph-name="uacute" unicode="&#xfa;" horiz-adv-x="1241" 
d="M82 543v358q0 49 3 71.5t17 53.5q29 55 160 55q143 0 168 -77q12 -33 12 -105v-358q0 -84 48.5 -131.5t129 -47.5t131 49.5t50.5 129.5v362q0 47 3 70.5t19 54.5q27 53 158 53q129 0 158 -55q14 -31 17 -54.5t3 -70.5v-725q0 -45 -3 -68.5t-19 -52.5q-31 -53 -158 -53
q-125 0 -154 49q-20 35 -20 84q-8 -14 -37 -40.5t-55 -45.5q-70 -45 -152 -45q-207 0 -343 156.5t-136 382.5zM393.5 1370q-0.5 35 12.5 53q20 27 75 43l338 105q53 14 62 14q61 0 98 -121q16 -49 16 -82.5t-12 -52.5q-20 -27 -76 -43l-336 -106l-61 -15q-61 0 -100 121
q-16 49 -16.5 84z" />
    <glyph glyph-name="ucircumflex" unicode="&#xfb;" horiz-adv-x="1241" 
d="M82 543v358q0 49 3 71.5t17 53.5q29 55 160 55q143 0 168 -77q12 -33 12 -105v-358q0 -84 48.5 -131.5t129 -47.5t131 49.5t50.5 129.5v362q0 47 3 70.5t19 54.5q27 53 158 53q129 0 158 -55q14 -31 17 -54.5t3 -70.5v-725q0 -45 -3 -68.5t-19 -52.5q-31 -53 -158 -53
q-125 0 -154 49q-20 35 -20 84q-8 -14 -37 -40.5t-55 -45.5q-70 -45 -152 -45q-207 0 -343 156.5t-136 382.5zM219 1389q0 66 78 92l285 94l49 10l47 -10q190 -61 275 -90t85 -101q0 -39 -22 -81q-53 -109 -123 -109q-18 0 -66 14l-196 86l-191 -82h-2q-41 -14 -67 -14
q-78 0 -127 105q-25 53 -25 86z" />
    <glyph glyph-name="udieresis" unicode="&#xfc;" horiz-adv-x="1241" 
d="M82 543v358q0 49 3 71.5t17 53.5q29 55 160 55q143 0 168 -77q12 -33 12 -105v-358q0 -84 48.5 -131.5t129 -47.5t131 49.5t50.5 129.5v362q0 47 3 70.5t19 54.5q27 53 158 53q129 0 158 -55q14 -31 17 -54.5t3 -70.5v-725q0 -45 -3 -68.5t-19 -52.5q-31 -53 -158 -53
q-125 0 -154 49q-20 35 -20 84q-8 -14 -37 -40.5t-55 -45.5q-70 -45 -152 -45q-207 0 -343 156.5t-136 382.5zM157 1404q1 50 4 71.5t18.5 52.5t55 43t105.5 12t104.5 -12t55 -44t19.5 -55.5t3 -71.5t-3 -71.5t-19.5 -54.5t-56.5 -43t-105.5 -12t-104 12t-55 44t-19.5 55.5
t-2 73.5zM709 1403q0 49 3 72.5t19.5 53.5t56 42t105 12t104.5 -12t55.5 -44t19.5 -55.5t3 -71.5t-3 -71.5t-19.5 -54.5t-56.5 -43t-105.5 -12t-104 12t-55 44t-19.5 55.5t-3 72.5z" />
    <glyph glyph-name="yacute" unicode="&#xfd;" horiz-adv-x="1236" 
d="M31 930q0 66 110 131q70 41 109 41t63.5 -16.5t35.5 -34t112.5 -190.5t193.5 -322q10 33 110.5 253t108 234t23.5 35q27 35 74.5 35t113.5 -29q121 -53 121 -129q0 -37 -16 -69.5t-16 -34.5l-537 -1201q-16 -39 -27.5 -59t-36 -38.5t-61.5 -18.5t-109 30
q-121 53 -120 127q0 49 196 469l-407 686q-41 68 -41 101zM385 1370q0 35 12 53q20 27 76 43l338 105q53 14 61 14q61 0 99 -121q16 -49 16 -82.5t-12 -52.5q-20 -27 -76 -43l-336 -106l-61 -15q-61 0 -101 121q-16 49 -16 84z" />
    <glyph glyph-name="thorn" unicode="&#xfe;" horiz-adv-x="1187" 
d="M82 -285v1721q0 80 17.5 115.5t54 48t96 12.5t95.5 -12.5t50 -43.5q20 -41 21 -122v-457q81 100 233 100q182 0 335 -161.5t153 -375.5t-151.5 -375t-324 -161t-247.5 94v-387q0 -80 -17.5 -114.5t-53.5 -47t-96.5 -12.5t-95 12.5t-49.5 40.5q-20 43 -20 125zM420 537.5
q0 -66.5 50 -122t126 -55.5t129 55.5t53 123t-49 124t-131 56.5t-130 -57.5t-48 -124z" />
    <glyph glyph-name="ydieresis" unicode="&#xff;" horiz-adv-x="1236" 
d="M31 930q0 66 110 131q70 41 109 41t63.5 -16.5t35.5 -34t112.5 -190.5t193.5 -322q10 33 110.5 253t108 234t23.5 35q27 35 74.5 35t113.5 -29q121 -53 121 -129q0 -37 -16 -69.5t-16 -34.5l-537 -1201q-16 -39 -27.5 -59t-36 -38.5t-61.5 -18.5t-109 30
q-121 53 -120 127q0 49 196 469l-407 686q-41 68 -41 101zM179 1404q1 50 4 71.5t18.5 52.5t55.5 43t105.5 12t104.5 -12t55.5 -44t19.5 -55.5t3 -71.5t-3 -71.5t-19.5 -54.5t-56.5 -43t-105.5 -12t-104.5 12t-55.5 44t-19.5 55.5t-2 73.5zM731 1403q0 49 3 72.5t19.5 53.5
t56.5 42t105.5 12t104.5 -12t55.5 -44t19.5 -55.5t3 -71.5t-3 -71.5t-19.5 -54.5t-56.5 -43t-105.5 -12t-104.5 12t-55.5 44t-19.5 55.5t-3 72.5z" />
    <glyph glyph-name="OE" unicode="&#x152;" horiz-adv-x="2236" 
d="M51 757q0 308 214 526t499 218h1241q47 0 70.5 -3t54.5 -19q55 -29 55 -160q0 -143 -76 -168q-35 -12 -106 -12h-629v-207h406q47 0 70.5 -3t54.5 -20q55 -29 55 -159q0 -143 -78 -168q-35 -12 -106 -13h-402v-207h631q47 0 70.5 -3t54.5 -19q55 -29 55 -160
q0 -143 -76 -168q-35 -12 -106 -12h-1239q-303 16 -508 232.5t-205 524.5zM414 750q0 -168 106.5 -276t243.5 -120h248v793h-248q-139 -12 -244.5 -120.5t-105.5 -276.5z" />
    <glyph glyph-name="oe" unicode="&#x153;" horiz-adv-x="1933" 
d="M49 535q0 246 172 405.5t392.5 159.5t383.5 -152q158 141 402 142q119 0 216 -40t152 -104q115 -129 115 -265t-62.5 -194.5t-138.5 -58.5h-475q0 -57 65.5 -96t131.5 -39q121 0 186 24l21 9q53 20 80 20q68 0 112 -88q27 -53 27 -92t-22.5 -66.5t-43 -37t-38 -15.5
t-20.5 -7t-5 -3q-141 -51 -301 -51q-248 0 -404 141q-166 -150 -381 -150q-137 0 -264 67t-214 197t-87 294zM412 537.5q0 -99.5 65.5 -149.5t133 -50t135 51t67.5 151.5t-63.5 149.5t-137 49t-137 -51t-63.5 -150.5zM1202 610h258q72 0 72 64q0 47 -36 75.5t-100.5 28.5
t-129 -53t-64.5 -115z" />
    <glyph glyph-name="circumflex" unicode="&#x2c6;" horiz-adv-x="1234" 
d="M209 1389q0 66 78 92l284 94l50 10l47 -10q190 -61 275 -90t85 -101q0 -39 -22 -81q-55 -109 -123 -109q-18 0 -66 14l-196 86l-191 -82q-29 -14 -70 -14q-78 0 -127 105q-25 53 -24 86z" />
    <glyph glyph-name="tilde" unicode="&#x2dc;" horiz-adv-x="1196" 
d="M160 1342.5q0 31.5 16.5 58t22.5 38t29.5 39t52.5 50.5q76 55 157.5 55t126.5 -25.5t74 -51t47 -25.5q33 0 53 24q43 78 92 78q31 0 74 -31q74 -51 74 -98q0 -29 -16.5 -55.5t-22.5 -37.5t-28.5 -40t-51.5 -51q-78 -57 -157.5 -57.5t-126 26.5t-76 53.5t-47.5 26.5
q-29 0 -54 -25q-47 -82 -87 -82t-96 49.5t-56 81z" />
    <glyph glyph-name="uni2000" unicode="&#x2000;" horiz-adv-x="997" 
 />
    <glyph glyph-name="uni2001" unicode="&#x2001;" horiz-adv-x="1995" 
 />
    <glyph glyph-name="uni2002" unicode="&#x2002;" horiz-adv-x="997" 
 />
    <glyph glyph-name="uni2003" unicode="&#x2003;" horiz-adv-x="1995" 
 />
    <glyph glyph-name="uni2004" unicode="&#x2004;" horiz-adv-x="665" 
 />
    <glyph glyph-name="uni2005" unicode="&#x2005;" horiz-adv-x="498" 
 />
    <glyph glyph-name="uni2006" unicode="&#x2006;" horiz-adv-x="332" 
 />
    <glyph glyph-name="uni2007" unicode="&#x2007;" horiz-adv-x="332" 
 />
    <glyph glyph-name="uni2008" unicode="&#x2008;" horiz-adv-x="249" 
 />
    <glyph glyph-name="uni2009" unicode="&#x2009;" horiz-adv-x="399" 
 />
    <glyph glyph-name="uni200A" unicode="&#x200a;" horiz-adv-x="110" 
 />
    <glyph glyph-name="uni2010" unicode="&#x2010;" horiz-adv-x="886" 
d="M51 448.5q0 57.5 12.5 92t38.5 49.5q37 18 99 18h487q115 0 135 -67q12 -37 12.5 -94.5t-11 -93.5t-36.5 -50q-36 -18 -102 -18h-487q-115 0 -138 69q-10 37 -10 94.5z" />
    <glyph glyph-name="uni2011" unicode="&#x2011;" horiz-adv-x="886" 
d="M51 448.5q0 57.5 12.5 92t38.5 49.5q37 18 99 18h487q115 0 135 -67q12 -37 12.5 -94.5t-11 -93.5t-36.5 -50q-36 -18 -102 -18h-487q-115 0 -138 69q-10 37 -10 94.5z" />
    <glyph glyph-name="figuredash" unicode="&#x2012;" horiz-adv-x="886" 
d="M51 448.5q0 57.5 12.5 92t38.5 49.5q37 18 99 18h487q115 0 135 -67q12 -37 12.5 -94.5t-11 -93.5t-36.5 -50q-36 -18 -102 -18h-487q-115 0 -138 69q-10 37 -10 94.5z" />
    <glyph glyph-name="endash" unicode="&#x2013;" horiz-adv-x="1148" 
d="M31 563.5q0 118.5 51 145.5q39 18 102 18h781q117 0 141 -72q12 -35 12 -88t-9 -85.5t-20.5 -49t-35.5 -26.5q-29 -11 -90 -11h-785q-63 0 -92 19q-55 31 -55 149.5z" />
    <glyph glyph-name="emdash" unicode="&#x2014;" horiz-adv-x="1419" 
d="M31 563.5q0 118.5 51 145.5q39 18 102 18h1053q119 0 139 -72q12 -35 12.5 -94t-10 -95t-35.5 -50q-36 -21 -108 -21h-1057q-63 0 -92 19q-55 31 -55 149.5z" />
    <glyph glyph-name="quoteleft" unicode="&#x2018;" horiz-adv-x="485" 
d="M51 989q0 51 4 76q14 180 106.5 308t233.5 128q14 0 25.5 -21.5t11.5 -55t-9 -54t-20.5 -24t-17.5 -4.5t-21.5 -10t-27.5 -25q-35 -41 -39 -133q68 -7 102.5 -41.5t34.5 -118.5v-31q0 -49 -3 -73.5t-19 -57.5q-31 -59 -156 -59t-165 40.5t-40 155.5z" />
    <glyph glyph-name="quoteright" unicode="&#x2019;" horiz-adv-x="485" 
d="M51 1313q0 82 20.5 122t62.5 53t130 13t135 -43q35 -35 35 -119v-32q0 -51 -4 -76q-14 -180 -106.5 -309t-233.5 -129q-14 0 -25.5 21.5t-11.5 56t9.5 54t20.5 22.5t17 4t22.5 10.5t29.5 25.5q33 43 36 133q-70 10 -103.5 45t-33.5 148z" />
    <glyph glyph-name="quotesinglbase" unicode="&#x201a;" horiz-adv-x="485" 
d="M51 193q0 82 20.5 121.5t62.5 53t130 13.5t135 -43q35 -35 35 -119v-33q0 -51 -4 -75q-14 -180 -106.5 -309.5t-233.5 -129.5q-14 0 -25.5 21.5t-11.5 56.5t9.5 54.5t20.5 22.5t17 4t22.5 10t29.5 26q33 43 36 133q-70 10 -103.5 45t-33.5 148z" />
    <glyph glyph-name="quotedblleft" unicode="&#x201c;" horiz-adv-x="987" 
d="M51 989q0 51 4 76q14 180 106.5 308t233.5 128q14 0 25.5 -21.5t11.5 -55t-9 -54t-20.5 -24t-17.5 -4.5t-21.5 -10t-27.5 -25q-35 -41 -39 -133q68 -7 102.5 -41.5t34.5 -118.5v-31q0 -49 -3 -73.5t-19 -57.5q-31 -59 -156 -59t-165 40.5t-40 155.5zM551 989q0 51 4 76
q14 180 107.5 308t234.5 128q14 0 25.5 -21.5t11.5 -55t-9.5 -54t-20.5 -24t-17 -4.5t-22.5 -10t-28.5 -25q-35 -41 -39 -133q68 -6 103.5 -42t35.5 -149q0 -121 -43 -154q-51 -37 -156.5 -36.5t-145.5 41t-40 155.5z" />
    <glyph glyph-name="quotedblright" unicode="&#x201d;" horiz-adv-x="987" 
d="M51 1313q0 82 20.5 122t62.5 53t130 13t135 -43q35 -35 35 -119v-32q0 -51 -4 -76q-14 -180 -106.5 -309t-233.5 -129q-14 0 -25.5 21.5t-11.5 56t9.5 54t20.5 22.5t17 4t22.5 10.5t29.5 25.5q33 43 36 133q-70 10 -103.5 45t-33.5 148zM552 1281q1 81 4 104.5t20.5 56.5
t58.5 46t131 13t130 -40t40 -154q0 -231 -113 -385q-92 -129 -233 -129q-14 0 -25.5 21.5t-11.5 56t9 54t20.5 22.5t17.5 4t22.5 10.5t28.5 25.5q33 43 37 133q-66 8 -100 41q-37 39 -36 120z" />
    <glyph glyph-name="quotedblbase" unicode="&#x201e;" horiz-adv-x="987" 
d="M51 193q0 82 20.5 121.5t62.5 53t130 13.5t135 -43q35 -35 35 -119v-33q0 -51 -4 -75q-14 -180 -106.5 -309.5t-233.5 -129.5q-14 0 -25.5 21.5t-11.5 56.5t9.5 54.5t20.5 22.5t17 4t22.5 10t29.5 26q33 43 36 133q-70 10 -103.5 45t-33.5 148zM552 161q1 81 4 104.5
t20.5 56t58.5 46t131 13.5t130 -40t40 -155q0 -231 -113 -385q-92 -129 -233 -129q-14 0 -25.5 21.5t-11.5 56.5t9 54.5t20.5 22.5t17.5 4t22.5 10t28.5 26q33 43 37 133q-66 8 -100 41q-37 39 -36 120z" />
    <glyph glyph-name="bullet" unicode="&#x2022;" horiz-adv-x="700" 
d="M51 647q0 299 299 299t299 -299t-299 -299t-299 299z" />
    <glyph glyph-name="ellipsis" unicode="&#x2026;" horiz-adv-x="1865" 
d="M51 193q0 82 20.5 121.5t62.5 53t130 13.5t135 -43q35 -35 35 -119v-33q0 -47 -3 -71.5t-19 -57.5q-31 -59 -156 -59t-165 41t-40 154zM741 162v31q0 49 3.5 72.5t20.5 56t58 46t131 13.5t130 -40t40 -155q0 -80 -20.5 -119.5t-62.5 -54t-131 -14.5t-129 40t-40 124z
M1430 193q2 49 5 72.5t20.5 56t58 46t131 13.5t130.5 -40t40 -155q0 -119 -46 -151q-49 -37 -154.5 -37t-145 41t-39.5 154z" />
    <glyph glyph-name="uni202F" unicode="&#x202f;" horiz-adv-x="399" 
 />
    <glyph glyph-name="guilsinglleft" unicode="&#x2039;" horiz-adv-x="784" 
d="M31 524l2 15l-2 14q0 43 61 104l361 361q63 63 110 63t119 -71.5t72 -117.5t-54 -104l-247 -249l245 -244q55 -59 55.5 -107.5t-70.5 -119t-119 -70.5t-111 63l-367 365q-55 59 -55 98z" />
    <glyph glyph-name="guilsinglright" unicode="&#x203a;" horiz-adv-x="784" 
d="M30.5 189q0.5 49 61.5 110l240 240l-244 245q-57 57 -57 105.5t71.5 120t118.5 71.5t111 -63l360 -361q61 -57 62 -100q0 -12 -2 -18q2 -6 2 -19q0 -43 -62 -100l-364 -363q-61 -61 -106.5 -61t-119.5 72q-72 72 -71.5 121z" />
    <glyph glyph-name="uni205F" unicode="&#x205f;" horiz-adv-x="498" 
 />
    <glyph glyph-name="Euro" unicode="&#x20ac;" horiz-adv-x="1253" 
d="M31 609q0 65 18.5 90.5t36.5 28.5t51 3h62q-2 27 -2 82v37h-58q-51 0 -73 10q-35 20 -35 85t18.5 90.5t36.5 28.5t51 3h82q29 152 94.5 258.5t149.5 157.5q154 94 313 94h254q45 0 68.5 -3t52.5 -19.5t40 -55.5t11 -102.5t-12 -102.5t-43 -54t-54.5 -18t-70.5 -3h-248
q-133 0 -184 -152h391q82 0 98 -47q8 -25 8 -62.5t-7 -61.5t-23 -32q-27 -14 -78 -14h-424l-2 -55l2 -66h426q35 0 52.5 -3t35.5 -28.5t18 -69.5t-7 -67.5t-23 -32.5q-27 -14 -78 -14h-393q31 -96 80 -125t110 -29h248q82 0 118 -19t48 -58t12 -101.5t-12 -100.5t-39 -52
q-41 -25 -117 -25h-260q-123 0 -216 43t-149.5 96.5t-107.5 149.5t-78 221h-84q-51 0 -73 10q-35 20 -35 85z" />
    <glyph glyph-name="trademark" unicode="&#x2122;" horiz-adv-x="1720" 
d="M31 1176q0 43 8 70.5t24 37.5q23 14 62 14h547q78 0 90 -53q6 -25 6 -77t-20.5 -82.5t-75.5 -30.5h-144v-459q0 -84 -53 -100q-29 -8 -73 -8.5t-71.5 9t-39.5 27.5q-16 29 -17 74v457h-141q-78 0 -94 51q-8 27 -8 70zM834 596q2 193 2 401.5t4 230t35.5 47t76.5 25.5
q72 0 105 -32l10 -11l170 -239l162 229q37 51 94 51t87 -12t42 -37q16 -41 16 -94v-559q0 -37 -4 -56.5t-31.5 -36t-86 -16.5t-89 15.5t-36 35t-5.5 56.5v201q-82 -123 -151 -123q-33 0 -70 30.5t-57 61.5l-21 31v-193q0 -57 -14 -78q-25 -37 -119 -37q-88 0 -106 33
q-14 27 -14 76z" />
    </font>
</defs>
</svg>
