<?xml version="1.0" standalone="no"?>
<!DOCTYPE svg PUBLIC "-//W3C//DTD SVG 1.1//EN" "http://www.w3.org/Graphics/SVG/1.1/DTD/svg11.dtd" >
<svg xmlns="http://www.w3.org/2000/svg" xmlns:xlink="http://www.w3.org/1999/xlink" version="1.1">
<metadata>
Created by FontForge 20170731 at Fri Jun 24 18:09:51 2022
 By Aleksey,,,
</metadata>
<defs>
<font id="greycliff_web_bold" horiz-adv-x="1189" >
  <font-face 
    font-family="Greycliff CF"
    font-weight="700"
    font-stretch="normal"
    units-per-em="2048"
    panose-1="0 0 8 0 0 0 0 0 0 0"
    ascent="1638"
    descent="-410"
    x-height="1004"
    cap-height="1434"
    bbox="-328 -451.759 2144.27 1948"
    underline-thickness="102"
    underline-position="-409"
    unicode-range="U+000D-FEFF"
  />
<missing-glyph horiz-adv-x="1013" 
d="M831 1638v-2027h-643v2027h643zM676 1503h-336v-67h133v-76h-135v-66h338v66h-135v76h135v67zM541 1241h-203v-211h338v70h-135v141zM473 1171v-71h-67v71h67zM676 975h-338v-66h135v-75h-135v-68h203v143h135v66zM676 854h-68v-133h-270v-70h338v203zM676 606h-203v-112
h68v45h67v-95h-202v162h-68v-229h338v229zM676 256h-338v-229h338v229zM608 188v-94h-202v94h202zM676 -20h-338v-66h143l-143 -96v-68h338v68h-207l141 96h66v66z" />
    <glyph glyph-name=".notdef" horiz-adv-x="1013" 
d="M831 1638v-2027h-643v2027h643zM676 1503h-336v-67h133v-76h-135v-66h338v66h-135v76h135v67zM541 1241h-203v-211h338v70h-135v141zM473 1171v-71h-67v71h67zM676 975h-338v-66h135v-75h-135v-68h203v143h135v66zM676 854h-68v-133h-270v-70h338v203zM676 606h-203v-112
h68v45h67v-95h-202v162h-68v-229h338v229zM676 256h-338v-229h338v229zM608 188v-94h-202v94h202zM676 -20h-338v-66h143l-143 -96v-68h338v68h-207l141 96h66v66z" />
    <glyph glyph-name=".null" horiz-adv-x="0" 
 />
    <glyph glyph-name=".null" horiz-adv-x="0" 
 />
    <glyph glyph-name="nonmarkingreturn" unicode="&#xd;" horiz-adv-x="682" 
 />
    <glyph glyph-name="glyph3" horiz-adv-x="1013" 
d="M831 1638v-2027h-643v2027h643zM676 1503h-336v-67h133v-76h-135v-66h338v66h-135v76h135v67zM541 1241h-203v-211h338v70h-135v141zM473 1171v-71h-67v71h67zM676 975h-338v-66h135v-75h-135v-68h203v143h135v66zM676 854h-68v-133h-270v-70h338v203zM676 606h-203v-112
h68v45h67v-95h-202v162h-68v-229h338v229zM676 256h-338v-229h338v229zM608 188v-94h-202v94h202zM676 -20h-338v-66h143l-143 -96v-68h338v68h-207l141 96h66v66z" />
    <glyph glyph-name="space" unicode=" " horiz-adv-x="399" 
 />
    <glyph glyph-name="exclam" unicode="!" horiz-adv-x="561" 
d="M199 440q-13 0 -22 9t-9 22l-31 932q0 13 8.5 22t22.5 9h227q13 0 22 -9t9 -22l-33 -932q0 -31 -31 -31h-163zM281 -27q-70 0 -119 49.5t-49 118.5q0 71 49 121.5t119 50.5t120 -50.5t50 -121.5q0 -69 -50 -118.5t-120 -49.5z" />
    <glyph glyph-name="quotedbl" unicode="&#x22;" horiz-adv-x="743" 
d="M301 1434q14 0 23 -9t8 -22l-23 -399q-3 -31 -30 -31h-144q-28 0 -31 31l-22 399q-1 13 8 22t23 9h188zM633 1434q14 0 23 -9t8 -22l-25 -399q-3 -31 -31 -31h-141q-26 0 -33 31l-22 399q-1 13 7.5 22t22.5 9h191z" />
    <glyph glyph-name="numbersign" unicode="#" horiz-adv-x="1337" 
d="M1202 997q14 0 21 -8.5t4 -21.5l-21 -82q-7 -31 -30 -31h-183l-73 -274h172q13 0 20 -8.5t4 -22.5l-18 -82q-7 -31 -31 -31h-184l-109 -411q-6 -25 -37 -25h-84q-33 0 -24 35l106 401h-278l-109 -411q-6 -25 -37 -25h-84q-33 0 -24 35l106 401h-172q-13 0 -20 8.5
t-4 22.5l18 82q7 31 31 31h184l74 274h-174q-14 0 -21 9t-4 22l21 82q7 30 30 30h185l108 412q6 25 37 25h84q34 0 25 -35l-107 -402h279l108 412q6 25 37 25h84q34 0 25 -35l-107 -402h172zM772 580l74 274h-279l-73 -274h278z" />
    <glyph glyph-name="dollar" unicode="$" horiz-adv-x="942" 
d="M627 774q226 -92 223 -289q-1 -122 -79 -199t-202 -100v-155q0 -14 -8.5 -22.5t-21.5 -8.5h-125q-14 0 -22.5 9t-8.5 22v155q-172 27 -285 158q-17 24 6 57l72 103q20 31 51 8q128 -98 230 -98q112 0 112 82q0 36 -23 59t-79 47l-129 51q-219 87 -219 275q0 117 74 194.5
t190 100.5v180q0 13 8.5 22t22.5 9h125q13 0 21.5 -8.5t8.5 -22.5v-182q144 -31 236 -146q17 -20 -2 -43l-90 -106q-19 -22 -47 0q-101 84 -181 84q-48 0 -73 -22.5t-25 -57.5q0 -63 98 -99z" />
    <glyph glyph-name="percent" unicode="%" horiz-adv-x="1490" 
d="M383 887q-119 0 -200 80t-81 198t81 198.5t200 80.5t200 -80.5t81 -198.5t-81 -198t-200 -80zM356 16l-106 72q-26 17 -10 43l854 1278q16 26 41 8l106 -71q26 -17 10 -43l-854 -1278q-17 -27 -41 -9zM383 1069q40 0 67 27.5t27 68.5t-27 69t-67 28t-67 -28t-27 -69
t27 -68.5t67 -27.5zM1108 -10q-119 0 -200 80t-81 198t81 198.5t200 80.5t200 -80.5t81 -198.5t-81 -198t-200 -80zM1108 172q40 0 67 27.5t27 68.5t-27 69t-67 28t-67 -28t-27 -69t27 -68.5t67 -27.5z" />
    <glyph glyph-name="ampersand" unicode="&#x26;" horiz-adv-x="1361" 
d="M1094 367l196 -207q22 -22 0 -45l-121 -125q-23 -24 -45 -2l-176 184q-89 -97 -192 -148t-232 -51q-125 0 -226.5 46.5t-164.5 141.5t-63 224q0 65 16 120.5t40.5 95.5t64 78t74.5 63t85 55q-147 158 -147 307q0 144 105.5 241t269.5 97q166 0 272 -95.5t106 -242.5
q0 -60 -19 -112.5t-56 -95t-72.5 -73t-87.5 -65.5l211 -221l100 153q21 31 45 31h205q13 0 18.5 -10.5t-2.5 -22.5zM578 1212q-53 0 -85 -33.5t-32 -82.5q0 -69 102 -174q61 39 97 80t36 94q0 51 -32 83.5t-86 32.5zM563 225q117 0 225 115l-270 283q-75 -49 -116.5 -98
t-41.5 -115q0 -81 58.5 -133t144.5 -52z" />
    <glyph glyph-name="quotesingle" unicode="'" horiz-adv-x="413" 
d="M301 1434q14 0 23 -9t8 -22l-23 -399q-3 -31 -30 -31h-144q-28 0 -31 31l-22 399q-1 13 8 22t23 9h188z" />
    <glyph glyph-name="parenleft" unicode="(" horiz-adv-x="720" 
d="M582 1526q18 0 23.5 -10t-3.5 -27q-196 -364 -196 -834q0 -494 198 -884q7 -17 1 -27t-23 -10h-217q-26 0 -37 20q-215 384 -215 901q0 490 215 850q12 21 37 21h217z" />
    <glyph glyph-name="parenright" unicode=")" horiz-adv-x="720" 
d="M139 1526h217q25 0 37 -21q215 -360 215 -850q0 -517 -215 -901q-11 -20 -37 -20h-217q-17 0 -23 10t1 27q198 390 198 884q0 470 -196 834q-9 17 -3.5 27t23.5 10z" />
    <glyph glyph-name="asterisk" unicode="*" horiz-adv-x="970" 
d="M444 1163l-10 271h101l-9 -271h-82zM418 1077l-264 70l26 102l264 -86zM553 1077l-27 86l262 86l29 -102zM332 801l-82 57l168 219l67 -53zM637 801l-152 223l68 53l166 -219z" />
    <glyph glyph-name="plus" unicode="+" horiz-adv-x="991" 
d="M827 688q13 0 22 -9t9 -22v-147q0 -14 -9 -22.5t-22 -8.5h-227v-227q0 -14 -9 -22.5t-22 -8.5h-147q-14 0 -22.5 8.5t-8.5 22.5v227h-227q-14 0 -22.5 8.5t-8.5 22.5v147q0 13 8.5 22t22.5 9h227v227q0 13 8.5 22t22.5 9h147q13 0 22 -9t9 -22v-227h227z" />
    <glyph glyph-name="comma" unicode="," horiz-adv-x="526" 
d="M86 -264v65q87 -1 150 70q42 47 38 83q-2 21 -24 21q-69 0 -118.5 50t-49.5 120q0 69 50 118.5t122 49.5q78 0 134 -59t56 -170q0 -83 -34.5 -153t-88.5 -112t-115.5 -64t-119.5 -19z" />
    <glyph glyph-name="hyphen" unicode="-" horiz-adv-x="880" 
d="M748 682q13 0 21.5 -8.5t8.5 -22.5v-168q0 -13 -8 -21.5t-22 -8.5h-615q-14 0 -22.5 8.5t-8.5 21.5v168q0 13 9 22t22 9h615z" />
    <glyph glyph-name="period" unicode="." horiz-adv-x="499" 
d="M250 -27q-70 0 -119 49.5t-49 118.5q0 71 49 121.5t119 50.5t120 -50.5t50 -121.5q0 -69 -50 -118.5t-120 -49.5z" />
    <glyph glyph-name="slash" unicode="/" horiz-adv-x="1054" 
d="M985 1526q37 0 25 -35l-672 -1733q-9 -24 -37 -24h-231q-37 0 -25 35l672 1732q9 25 37 25h231z" />
    <glyph glyph-name="zero" unicode="0" horiz-adv-x="1335" 
d="M668 1450q92 0 175.5 -27t157 -85.5t127 -144t84.5 -209t31 -273.5t-31 -273.5t-84.5 -208.5t-127 -143.5t-157 -85.5t-175.5 -27t-175.5 27t-157 85.5t-127.5 143.5t-85 208.5t-31 273.5t31 274t85 209t127.5 143.5t157 85.5t175.5 27zM668 1188q-77 0 -135.5 -35.5
t-94.5 -100t-53.5 -150t-17.5 -191.5t17.5 -191t53.5 -149.5t94.5 -99.5t135.5 -35q101 0 170 62t100 166.5t31 246.5t-31 247t-100 167.5t-170 62.5z" />
    <glyph glyph-name="one" unicode="1" horiz-adv-x="743" 
d="M590 1434q14 0 22.5 -9t8.5 -22v-1372q0 -13 -8.5 -22t-22.5 -9h-221q-13 0 -22 9t-9 22v1163h-236q-13 0 -21.5 8.5t-8.5 22.5v178q0 14 8.5 22.5t21.5 8.5h488z" />
    <glyph glyph-name="two" unicode="2" horiz-adv-x="1087" 
d="M956 240q14 0 22.5 -9t8.5 -22v-178q0 -13 -8.5 -22t-22.5 -9h-825q-13 0 -22 9t-9 22v176q0 21 15 39l430 450q2 2 27.5 30t33 37.5t29.5 36.5t31 45t22 44.5t18 52.5t5 53q0 87 -57 141t-152 54q-81 0 -135 -37.5t-101 -101.5q-22 -25 -47 0l-125 125q-21 21 -4 45
q157 229 434 229q205 0 334 -122t129 -308q0 -55 -14 -109t-30 -90t-46.5 -79t-45.5 -60t-45 -49q-3 -3 -4 -4.5t-3 -3.5l-4 -4l-357 -381h518z" />
    <glyph glyph-name="three" unicode="3" horiz-adv-x="1062" 
d="M510 -27q-147 0 -257.5 59.5t-174.5 157.5q-16 28 6 46l135 122q9 9 22 8.5t23 -12.5q97 -121 228 -121q99 0 156 57.5t57 141.5q0 80 -56 138.5t-160 58.5h-55q-15 0 -24 9t-9 24v165q0 31 33 31h53q88 0 133.5 49t45.5 117q0 73 -52 119.5t-129 46.5q-127 0 -194 -115
q-17 -28 -45 -4l-127 125q-24 20 -6 43q60 94 165 152.5t238 58.5q177 0 300.5 -103t123.5 -274q0 -113 -57 -192.5t-144 -118.5q109 -42 180.5 -134t71.5 -229q0 -189 -137.5 -307.5t-343.5 -118.5z" />
    <glyph glyph-name="four" unicode="4" horiz-adv-x="1208" 
d="M1096 510q13 0 21.5 -8.5t8.5 -22.5v-172q0 -14 -8.5 -22.5t-21.5 -8.5h-125v-245q0 -13 -8.5 -22t-22.5 -9h-221q-13 0 -22 9t-9 22v245h-575q-13 0 -22 9t-9 22v182q0 22 10 39l584 885q12 21 37 21h227q14 0 22.5 -9t8.5 -22v-893h125zM358 510h330v506z" />
    <glyph glyph-name="five" unicode="5" horiz-adv-x="1110" 
d="M592 954q194 0 321 -138t127 -345q0 -148 -69.5 -262.5t-186.5 -175t-262 -60.5q-150 0 -262 64.5t-164 152.5q-12 29 15 50l145 110q30 21 51 -8q80 -109 211 -109q111 0 179.5 70.5t68.5 173.5q0 104 -69 172t-173 68q-110 0 -182 -78q-21 -24 -51 -14l-154 61
q-26 11 -20 37l153 684q7 27 33 27h615q13 0 21.5 -8.5t8.5 -22.5v-178q0 -14 -8.5 -22.5t-21.5 -8.5h-437l-63 -274q81 34 174 34z" />
    <glyph glyph-name="six" unicode="6" horiz-adv-x="1155" 
d="M631 956q199 -21 326.5 -153.5t127.5 -335.5q0 -211 -146 -352.5t-361 -141.5q-213 0 -360.5 142t-147.5 350q0 202 176 422l459 573q21 25 43 6l151 -133q25 -22 6 -43zM578 233q102 0 167.5 68.5t65.5 173.5q0 103 -66 172.5t-167 69.5t-167.5 -69.5t-66.5 -172.5
q0 -104 66.5 -173t167.5 -69z" />
    <glyph glyph-name="seven" unicode="7" horiz-adv-x="1069" 
d="M983 1434q15 0 22 -11t1 -28l-537 -1364q-10 -31 -39 -31h-215q-15 0 -22 9.5t0 27.5l473 1157h-564q-13 0 -21.5 8.5t-8.5 22.5v178q0 14 8.5 22.5t21.5 8.5h881z" />
    <glyph glyph-name="eight" unicode="8" horiz-adv-x="1183" 
d="M592 -27q-130 0 -242.5 52t-185 157t-72.5 242q0 132 66.5 233.5t175.5 153.5q-69 49 -108.5 121t-39.5 160q0 152 112 255t294 103q181 0 293 -103.5t112 -254.5q0 -88 -39 -160t-108 -121q108 -52 175 -154t67 -233q0 -103 -42 -189.5t-112 -143t-159.5 -87.5
t-186.5 -31zM592 911q67 0 111.5 46.5t44.5 111.5q0 67 -44.5 112.5t-111.5 45.5t-111.5 -45.5t-44.5 -112.5q0 -65 44.5 -111.5t111.5 -46.5zM592 231q92 0 154.5 56.5t62.5 150.5q0 98 -64.5 156.5t-152.5 58.5t-152.5 -58.5t-64.5 -156.5q0 -94 62 -150.5t155 -56.5z" />
    <glyph glyph-name="nine" unicode="9" horiz-adv-x="1155" 
d="M578 1450q214 0 360.5 -141.5t146.5 -350.5q0 -103 -42 -204.5t-134 -216.5l-458 -574q-21 -25 -43 -6l-152 133q-25 22 -6 43l274 334q-198 21 -326 153.5t-128 335.5q0 139 67.5 252.5t184 177.5t256.5 64zM578 707q101 0 167 69t66 172q0 104 -66 173t-167 69
q-102 0 -168 -68.5t-66 -173.5q0 -103 66.5 -172t167.5 -69z" />
    <glyph glyph-name="colon" unicode=":" horiz-adv-x="499" 
d="M250 688q-70 0 -119 49.5t-49 120.5q0 70 49 120t119 50t120 -50.5t50 -119.5q0 -70 -50 -120t-120 -50zM250 -25q-70 0 -119 49.5t-49 118.5q0 71 49 121.5t119 50.5t120 -50.5t50 -121.5q0 -69 -50 -118.5t-120 -49.5z" />
    <glyph glyph-name="semicolon" unicode=";" horiz-adv-x="526" 
d="M252 688q-70 0 -119 49.5t-49 120.5q0 70 49 120t119 50t120 -50.5t50 -119.5q0 -70 -50 -120t-120 -50zM86 -264v65q87 -1 150 70q42 47 38 83q-2 21 -24 21q-69 0 -118.5 50t-49.5 120q0 69 50 118.5t122 49.5q78 0 134 -59t56 -170q0 -83 -34.5 -153t-88.5 -112
t-115.5 -64t-119.5 -19z" />
    <glyph glyph-name="less" unicode="&#x3c;" horiz-adv-x="1058" 
d="M899 35l-754 366q-22 13 -22 35v148q0 21 22 34l754 367q15 8 26 3.5t11 -21.5v-185q0 -20 -23 -30l-532 -242l532 -242q23 -10 23 -30v-185q0 -17 -11 -21.5t-26 3.5z" />
    <glyph glyph-name="equal" unicode="=" horiz-adv-x="1032" 
d="M164 645q-14 0 -22.5 8.5t-8.5 22.5v147q0 13 8.5 22t22.5 9h704q14 0 22.5 -9t8.5 -22v-147q0 -14 -8.5 -22.5t-22.5 -8.5h-704zM164 313q-14 0 -22.5 8.5t-8.5 22.5v148q0 13 8.5 21.5t22.5 8.5h704q14 0 22.5 -8.5t8.5 -21.5v-148q0 -14 -8.5 -22.5t-22.5 -8.5h-704z
" />
    <glyph glyph-name="greater" unicode="&#x3e;" horiz-adv-x="1058" 
d="M160 35q-15 -8 -26 -3.5t-11 21.5v185q0 21 22 30l533 242l-533 242q-22 9 -22 30v185q0 17 11 21.5t26 -3.5l753 -367q23 -13 23 -34v-148q0 -22 -23 -35z" />
    <glyph glyph-name="question" unicode="?" horiz-adv-x="950" 
d="M371 442q-14 0 -23.5 9t-9.5 22l-2 78q-2 63 11.5 114t36 85t50.5 62t56 51.5t51.5 47t38 55t14.5 68.5q0 66 -43 104t-109 38q-126 0 -192 -154q-16 -28 -49 -8l-125 78q-45 25 -35 59q45 133 158 216t276 83q62 0 120 -13t110 -41.5t90.5 -69.5t61 -100.5t22.5 -131.5
q0 -61 -15.5 -112.5t-40 -87.5t-54.5 -67.5t-61 -61t-57.5 -59t-44.5 -69.5t-22 -86l-6 -78q-3 -31 -31 -31h-176zM461 -27q-70 0 -120 49.5t-50 118.5q0 71 50 121.5t120 50.5q69 0 118.5 -50.5t49.5 -121.5q0 -69 -49.5 -118.5t-118.5 -49.5z" />
    <glyph glyph-name="at" unicode="@" horiz-adv-x="1675" 
d="M1198 1030l-37 -381q-12 -110 72 -110q110 0 110 200q0 148 -66 262t-177 174t-246 60q-103 0 -197.5 -37t-166.5 -103t-115 -165t-43 -215q0 -156 72.5 -278t191 -185.5t258.5 -63.5q148 0 262 70l127 -154q-44 -51 -151.5 -91t-237.5 -40q-117 0 -228 33t-206 97.5
t-166.5 152.5t-112.5 206.5t-41 252.5t41.5 252t113.5 205.5t167 150.5t205.5 95t226.5 32q144 0 274.5 -49.5t229 -137.5t157 -218t58.5 -281q0 -201 -94 -310.5t-238 -109.5q-135 0 -184 94q-91 -94 -232 -94q-155 0 -252.5 105t-97.5 260t97 259.5t253 104.5
q138 0 226 -88l28 45h119zM838 539q72 0 119 48t47 122t-47 122t-119 48q-73 0 -119.5 -48t-46.5 -122t46.5 -122t119.5 -48z" />
    <glyph glyph-name="A" unicode="A" horiz-adv-x="1427" 
d="M1356 35q6 -15 -2 -25t-25 -10h-242q-26 0 -34 25l-70 211h-541l-69 -211q-8 -25 -35 -25h-242q-17 0 -23.5 10t-0.5 25l479 1374q9 25 39 25h248q30 0 39 -25zM526 496h373l-186 569z" />
    <glyph glyph-name="B" unicode="B" horiz-adv-x="1212" 
d="M172 0q-14 0 -22.5 9t-8.5 22v1372q0 13 8.5 22t22.5 9h483q188 0 292 -104t104 -257q0 -108 -53.5 -186.5t-135.5 -114.5q122 -32 201.5 -125.5t79.5 -240.5q0 -186 -128 -296t-376 -110h-467zM430 864h168q176 0 176 162q0 80 -45 115t-131 35h-168v-312zM430 258h188
q109 0 168.5 47.5t59.5 143.5q0 188 -228 188h-188v-379z" />
    <glyph glyph-name="C" unicode="C" horiz-adv-x="1441" 
d="M840 -27q-152 0 -288.5 56.5t-235.5 154.5t-157.5 235t-58.5 292q0 206 99 376t268.5 266.5t372.5 96.5q294 0 501 -207q20 -20 0 -43l-143 -153q-20 -23 -43 -3q-142 119 -315 119q-189 0 -316 -129t-127 -323t126.5 -322.5t316.5 -128.5q173 0 315 119q24 20 43 -2
l143 -154q21 -21 0 -41q-206 -209 -501 -209z" />
    <glyph glyph-name="D" unicode="D" horiz-adv-x="1415" 
d="M172 0q-14 0 -22.5 9t-8.5 22v1372q0 13 8.5 22t22.5 9h422q175 0 315.5 -55t230.5 -152.5t137.5 -227.5t47.5 -282t-47.5 -282t-137.5 -227.5t-230.5 -152.5t-315.5 -55h-422zM434 260h156q217 0 327.5 117t110.5 340t-110.5 340t-327.5 117h-156v-914z" />
    <glyph glyph-name="E" unicode="E" horiz-adv-x="1054" 
d="M172 0q-14 0 -22.5 9t-8.5 22v1372q0 13 8.5 22t22.5 9h729q13 0 22 -9t9 -22v-199q0 -13 -8.5 -21.5t-22.5 -8.5h-467v-318h440q14 0 22.5 -9t8.5 -22v-198q0 -13 -8.5 -22t-22.5 -9h-440v-336h467q13 0 22 -9t9 -22v-198q0 -13 -9 -22t-22 -9h-729z" />
    <glyph glyph-name="F" unicode="F" horiz-adv-x="1034" 
d="M172 0q-14 0 -22.5 9t-8.5 22v1372q0 13 8.5 22t22.5 9h719q14 0 23.5 -9t9.5 -22v-199q0 -13 -9.5 -21.5t-23.5 -8.5h-457v-308h430q14 0 23.5 -8.5t9.5 -21.5v-199q0 -13 -9.5 -22t-23.5 -9h-430v-575q0 -13 -9 -22t-22 -9h-231z" />
    <glyph glyph-name="G" unicode="G" horiz-adv-x="1585" 
d="M1473 815q13 0 21.5 -8.5t8.5 -22.5v-133q0 -141 -45.5 -264.5t-129 -215.5t-208.5 -145t-276 -53q-153 0 -290.5 56.5t-237 154.5t-158 235t-58.5 292q0 206 99 376t268 266.5t371 96.5q299 0 499 -203q24 -24 0 -53l-137 -145q-22 -25 -45 -5q-142 119 -315 119
q-189 0 -316 -129t-127 -323q0 -195 129 -323t328 -128q163 0 263 84.5t108 210.5h-371q-14 0 -22.5 8.5t-8.5 22.5v198q0 14 8.5 22.5t22.5 8.5h619z" />
    <glyph glyph-name="H" unicode="H" horiz-adv-x="1394" 
d="M1223 1434q13 0 21.5 -8.5t8.5 -22.5v-1372q0 -14 -8.5 -22.5t-21.5 -8.5h-232q-13 0 -21.5 8.5t-8.5 22.5v544h-527v-544q0 -13 -9 -22t-22 -9h-231q-14 0 -22.5 9t-8.5 22v1372q0 13 8.5 22t22.5 9h231q13 0 22 -9t9 -22v-569h527v569q0 14 8.5 22.5t21.5 8.5h232z" />
    <glyph glyph-name="I" unicode="I" horiz-adv-x="577" 
d="M172 0q-14 0 -22.5 9t-8.5 22v1372q0 13 8.5 22t22.5 9h231q13 0 22 -9t9 -22v-1372q0 -13 -9 -22t-22 -9h-231z" />
    <glyph glyph-name="J" unicode="J" horiz-adv-x="1120" 
d="M477 -27q-128 0 -222.5 44t-152.5 112q-9 10 -9.5 25.5t7.5 25.5l121 160q8 9 20 10t23 -8q31 -25 49.5 -38t62 -28.5t91.5 -15.5q219 0 219 272v871q0 13 9 22t22 9h231q14 0 22.5 -9t8.5 -22v-858q0 -279 -137.5 -425.5t-364.5 -146.5z" />
    <glyph glyph-name="K" unicode="K" horiz-adv-x="1368" 
d="M1300 37q11 -15 6 -26t-24 -11h-268q-24 0 -37 18l-389 547l-154 -194v-340q0 -13 -9 -22t-22 -9h-231q-14 0 -22.5 9t-8.5 22v1372q0 13 8.5 22t22.5 9h231q13 0 22 -9t9 -22v-633l475 647q14 17 37 17h281q19 0 23 -12t-7 -25l-475 -604z" />
    <glyph glyph-name="L" unicode="L" horiz-adv-x="983" 
d="M872 260q14 0 22.5 -9t8.5 -22v-198q0 -13 -8.5 -22t-22.5 -9h-700q-14 0 -22.5 9t-8.5 22v1372q0 13 8.5 22t22.5 9h231q13 0 22 -9t9 -22v-1143h438z" />
    <glyph glyph-name="M" unicode="M" horiz-adv-x="1806" 
d="M1634 1434q14 0 22.5 -9t8.5 -22v-1372q0 -13 -8.5 -22t-22.5 -9h-231q-13 0 -22 9t-9 22v854l-26 -88l-304 -772q-9 -25 -36 -25h-205q-28 0 -37 25l-303 772l-27 90v-856q0 -13 -9 -22t-22 -9h-231q-14 0 -22.5 9t-8.5 22v1372q0 13 8.5 22t22.5 9h268q26 0 35 -21
l428 -1075l428 1075q9 21 35 21h268z" />
    <glyph glyph-name="N" unicode="N" horiz-adv-x="1427" 
d="M1255 1434q13 0 22 -9t9 -22v-1372q0 -13 -9 -22t-22 -9h-272q-26 0 -37 20l-512 945v-934q0 -13 -9 -22t-22 -9h-231q-14 0 -22.5 9t-8.5 22v1372q0 13 8.5 22t22.5 9h272q25 0 37 -21l512 -944v934q0 13 8.5 22t22.5 9h231z" />
    <glyph glyph-name="O" unicode="O" horiz-adv-x="1677" 
d="M838 -27q-201 0 -370.5 97.5t-268.5 267.5t-99 373q0 204 99 374.5t268.5 267.5t370.5 97q151 0 287 -57.5t235 -155.5t157 -235.5t58 -290.5q0 -203 -98.5 -373t-268 -267.5t-370.5 -97.5zM838 260q189 0 314.5 129.5t125.5 321.5q0 194 -125.5 323t-314.5 129
q-188 0 -314.5 -129.5t-126.5 -322.5q0 -192 126.5 -321.5t314.5 -129.5z" />
    <glyph glyph-name="P" unicode="P" horiz-adv-x="1187" 
d="M172 0q-14 0 -22.5 9t-8.5 22v1372q0 13 8.5 22t22.5 9h432q247 0 375.5 -126t128.5 -339q0 -214 -128 -340.5t-376 -126.5h-170v-471q0 -13 -9 -22t-22 -9h-231zM434 762h160q233 0 233 207q0 205 -233 205h-160v-412z" />
    <glyph glyph-name="Q" unicode="Q" horiz-adv-x="1677" 
d="M1565 172q21 -22 0 -43l-156 -156q-21 -21 -43 0l-121 121q-186 -121 -407 -121q-201 0 -370.5 97.5t-268.5 267.5t-99 373q0 204 99 374.5t268.5 267.5t370.5 97q151 0 287 -57.5t235 -155.5t157 -235.5t58 -290.5q0 -233 -129 -420zM838 260q106 0 198 45l-159 160
q-21 21 0 43l155 156q22 22 43 0l158 -158q45 95 45 205q0 194 -125.5 323t-314.5 129q-188 0 -314.5 -129.5t-126.5 -322.5q0 -192 126.5 -321.5t314.5 -129.5z" />
    <glyph glyph-name="R" unicode="R" horiz-adv-x="1230" 
d="M1145 37q10 -17 4 -27t-25 -10h-245q-26 0 -37 20l-303 482h-105v-471q0 -13 -9 -22t-22 -9h-231q-14 0 -22.5 9t-8.5 22v1372q0 13 8.5 22t22.5 9h432q247 0 375.5 -126t128.5 -339q0 -160 -71.5 -272t-213.5 -162zM434 1174v-412h160q233 0 233 207q0 205 -233 205
h-160z" />
    <glyph glyph-name="S" unicode="S" horiz-adv-x="1136" 
d="M565 -25q-156 0 -275.5 64t-189.5 160q-16 22 2 43l123 141q20 24 45 2q71 -73 138 -107t151 -34q93 0 147 39t54 114q0 35 -11.5 61t-38.5 47t-51.5 34t-70.5 34l-174 82q-62 29 -110 62t-90 79.5t-64.5 110t-22.5 140.5q0 126 60 219t159 138.5t223 45.5
q244 0 420 -188q22 -22 2 -48l-117 -141q-20 -27 -45 -8q-69 61 -126.5 89t-122.5 28q-78 0 -124 -37t-46 -101q0 -58 37 -91t131 -76l147 -68q55 -26 94 -48t85 -59t74 -77t47 -99t19 -129q0 -105 -40 -187.5t-108.5 -132.5t-152.5 -76t-178 -26z" />
    <glyph glyph-name="T" unicode="T" horiz-adv-x="1116" 
d="M442 0q-13 0 -21.5 8.5t-8.5 22.5v1143h-281q-14 0 -22.5 8.5t-8.5 21.5v199q0 13 9 22t22 9h852q13 0 22 -9t9 -22v-199q0 -13 -8.5 -21.5t-22.5 -8.5h-278v-1143q0 -13 -8.5 -22t-22.5 -9h-232z" />
    <glyph glyph-name="U" unicode="U" horiz-adv-x="1345" 
d="M674 -27q-245 0 -394 148.5t-149 423.5v858q0 13 8.5 22t22.5 9h231q13 0 22 -9t9 -22v-852q0 -140 65.5 -215.5t184.5 -75.5q118 0 183 75.5t65 215.5v852q0 14 8.5 22.5t21.5 8.5h232q13 0 21.5 -8.5t8.5 -22.5v-858q0 -275 -148 -423.5t-392 -148.5z" />
    <glyph glyph-name="V" unicode="V" horiz-adv-x="1427" 
d="M590 0q-30 0 -39 25l-479 1374q-6 15 0.5 25t23.5 10h242q27 0 35 -25l340 -1040l340 1040q8 25 34 25h242q17 0 25 -10t2 -25l-479 -1374q-9 -25 -39 -25h-248z" />
    <glyph glyph-name="W" unicode="W" horiz-adv-x="2213" 
d="M2118 1434q34 0 24 -35l-409 -1374q-6 -25 -39 -25h-244q-33 0 -39 25l-303 1042l-305 -1042q-6 -25 -39 -25h-244q-33 0 -39 25l-409 1374q-10 35 24 35h240q32 0 35 -25l280 -1012l310 1012q8 25 34 25h224q26 0 34 -25l310 -1012l280 1012q6 25 35 25h240z" />
    <glyph glyph-name="X" unicode="X" horiz-adv-x="1333" 
d="M1237 37q19 -37 -20 -37h-252q-26 0 -37 20l-260 443l-262 -443q-11 -20 -37 -20h-252q-40 0 -21 37l412 696l-391 664q-19 37 20 37h248q27 0 39 -21l244 -412l243 412q9 21 37 21h248q40 0 21 -37l-392 -664z" />
    <glyph glyph-name="Y" unicode="Y" horiz-adv-x="1284" 
d="M1188 1434q39 0 20 -37l-420 -735v-631q0 -14 -8.5 -22.5t-21.5 -8.5h-232q-13 0 -21.5 8.5t-8.5 22.5v633l-420 733q-19 37 20 37h242q25 0 37 -21l268 -481l266 481q12 21 37 21h242z" />
    <glyph glyph-name="Z" unicode="Z" horiz-adv-x="1136" 
d="M121 0q-13 0 -22 9t-9 22v209q0 18 12 36l615 898h-576q-13 0 -21.5 8t-8.5 22v199q0 14 8.5 22.5t21.5 8.5h842q13 0 22 -9t9 -22v-209q0 -18 -13 -37l-614 -897h617q13 0 21.5 -8.5t8.5 -22.5v-198q0 -14 -8.5 -22.5t-21.5 -8.5h-883z" />
    <glyph glyph-name="bracketleft" unicode="[" horiz-adv-x="679" 
d="M537 1526q13 0 21.5 -8.5t8.5 -22.5v-168q0 -14 -8.5 -22.5t-21.5 -8.5h-131v-1333h131q13 0 21.5 -8.5t8.5 -22.5v-168q0 -14 -8.5 -22t-21.5 -8h-394q-13 0 -21.5 8t-8.5 22v1731q0 14 8.5 22.5t21.5 8.5h394z" />
    <glyph glyph-name="backslash" unicode="\" horiz-adv-x="1054" 
d="M70 1526h231q28 0 37 -25l672 -1732q12 -35 -25 -35h-231q-28 0 -37 24l-672 1733q-12 35 25 35z" />
    <glyph glyph-name="bracketright" unicode="]" horiz-adv-x="679" 
d="M143 1526h394q13 0 21.5 -8.5t8.5 -22.5v-1731q0 -14 -8.5 -22t-21.5 -8h-394q-13 0 -21.5 8t-8.5 22v168q0 14 8.5 22.5t21.5 8.5h131v1333h-131q-13 0 -21.5 8.5t-8.5 22.5v168q0 14 8.5 22.5t21.5 8.5z" />
    <glyph glyph-name="asciicircum" unicode="^" horiz-adv-x="1204" 
d="M127 657l367 754q13 23 34 23h148q22 0 35 -23l366 -754q8 -15 3.5 -25.5t-21.5 -10.5h-185q-21 0 -30 22l-242 533l-242 -533q-9 -22 -30 -22h-185q-17 0 -21.5 10.5t3.5 25.5z" />
    <glyph glyph-name="underscore" unicode="_" horiz-adv-x="1269" 
d="M1116 0q14 0 22.5 -9t8.5 -22v-168q0 -13 -8.5 -21.5t-22.5 -8.5h-962q-14 0 -22.5 8.5t-8.5 21.5v168q0 13 8.5 22t22.5 9h962z" />
    <glyph glyph-name="grave" unicode="`" horiz-adv-x="448" 
d="M59 1434h199q21 0 35 -25l121 -233q8 -17 0.5 -26t-25.5 -9h-196q-22 0 -35 24l-123 234q-8 17 -1 26t25 9z" />
    <glyph glyph-name="a" unicode="a" horiz-adv-x="1263" 
d="M1110 1004q14 0 22.5 -9t8.5 -22v-942q0 -13 -9.5 -22t-23.5 -9h-199q-13 0 -21.5 8.5t-8.5 22.5l-5 110q-114 -166 -327 -166q-210 0 -343.5 150t-133.5 377q0 225 133.5 375.5t343.5 150.5q216 0 327 -166l5 111q0 14 8.5 22.5t21.5 8.5h201zM606 233q113 0 183.5 74
t70.5 195t-70.5 194.5t-183.5 73.5t-186.5 -74.5t-73.5 -193.5q0 -120 73 -194.5t187 -74.5z" />
    <glyph glyph-name="b" unicode="b" horiz-adv-x="1263" 
d="M717 1028q138 0 247 -69.5t168.5 -189t59.5 -267.5t-59.5 -268.5t-168.5 -189.5t-247 -69q-214 0 -328 166l-4 -110q0 -13 -8.5 -22t-22.5 -9h-200q-14 0 -23.5 9t-9.5 22v1403q0 13 8.5 21.5t22.5 8.5h223q14 0 22.5 -8.5t8.5 -21.5v-549q108 143 311 143zM657 233
q112 0 185 74.5t73 194.5q0 119 -73 193.5t-185 74.5q-114 0 -185 -73.5t-71 -194.5t71 -195t185 -74z" />
    <glyph glyph-name="c" unicode="c" horiz-adv-x="1062" 
d="M600 -25q-150 0 -271.5 69.5t-190 191t-68.5 270.5q0 223 149.5 372.5t374.5 149.5q122 0 222.5 -47.5t166.5 -132.5q18 -21 -4 -43l-123 -121q-12 -12 -27 -11.5t-26 11.5q-84 84 -197 84q-118 0 -191 -75t-73 -187q0 -114 74.5 -192t195.5 -78q110 0 193 83
q11 11 26 11.5t27 -11.5l123 -120q22 -22 4 -43q-66 -85 -166 -133t-219 -48z" />
    <glyph glyph-name="d" unicode="d" horiz-adv-x="1263" 
d="M1110 1464q14 0 22.5 -8.5t8.5 -21.5v-1403q0 -13 -9.5 -22t-23.5 -9h-199q-13 0 -21.5 8.5t-8.5 22.5l-5 110q-114 -166 -327 -166q-210 0 -343.5 150t-133.5 377q0 225 133.5 375.5t343.5 150.5q200 0 309 -141v547q0 13 8.5 21.5t22.5 8.5h223zM606 233
q113 0 183.5 74t70.5 195t-70.5 194.5t-183.5 73.5t-186.5 -74.5t-73.5 -193.5q0 -120 73 -194.5t187 -74.5z" />
    <glyph glyph-name="e" unicode="e" horiz-adv-x="1136" 
d="M1067 549q0 -78 -24 -116t-87 -38h-608q48 -196 295 -196q128 0 234 61q20 11 34 -8l76 -105q16 -22 -10 -45q-127 -127 -356 -127q-122 0 -225 40.5t-174.5 111t-111.5 168.5t-40 211q0 224 143.5 373t372.5 149q147 0 258.5 -67.5t167 -175t55.5 -236.5zM588 795
q-96 0 -161.5 -52t-82.5 -149h471q-12 99 -72.5 150t-154.5 51z" />
    <glyph glyph-name="f" unicode="f" horiz-adv-x="786" 
d="M616 1245q-70 0 -96 -31.5t-26 -93.5v-116h200q14 0 22.5 -9t8.5 -22v-158q0 -13 -8.5 -22t-22.5 -9h-200v-753q0 -13 -9 -22t-22 -9h-223q-14 0 -22.5 9t-8.5 22v753h-119q-14 0 -22.5 9t-8.5 22v158q0 13 8.5 22t22.5 9h119v155q0 171 89.5 254.5t254.5 83.5
q93 0 154 -31q18 -9 18 -30v-187q0 -18 -27 -14q-55 10 -82 10z" />
    <glyph glyph-name="g" unicode="g" horiz-adv-x="1245" 
d="M1094 1004q13 0 21.5 -8.5t8.5 -22.5v-918q0 -104 -31.5 -187t-83 -136t-122 -88t-143 -49.5t-150.5 -14.5q-113 0 -215.5 30t-175.5 85q-14 10 -17.5 28t4.5 31l60 113q17 34 51 16q131 -73 266 -73q56 0 105 13t91 40.5t66.5 77t24.5 116.5v107q-106 -144 -311 -144
q-211 0 -342 140t-131 364q0 222 131 363t342 141q209 0 313 -145l4 90q0 13 9.5 22t23.5 9h201zM598 274q109 0 177.5 68t68.5 182t-68.5 182t-177.5 68q-110 0 -181 -68.5t-71 -181.5q0 -114 70.5 -182t181.5 -68z" />
    <glyph glyph-name="h" unicode="h" 
d="M707 1028q162 0 262 -110.5t100 -303.5v-583q0 -13 -9.5 -22t-23.5 -9h-219q-13 0 -22 9t-9 22v520q0 106 -47.5 161.5t-138.5 55.5t-144 -56.5t-53 -160.5v-520q0 -14 -8.5 -22.5t-21.5 -8.5h-221q-14 0 -22.5 9t-8.5 22v1403q0 13 8.5 21.5t22.5 8.5h221q13 0 21.5 -8
t8.5 -22v-582q45 81 122 128.5t182 47.5z" />
    <glyph glyph-name="i" unicode="i" horiz-adv-x="532" 
d="M266 1182q-67 0 -112 45.5t-45 111.5q0 65 45 110.5t112 45.5t111.5 -45.5t44.5 -110.5q0 -66 -44.5 -111.5t-111.5 -45.5zM154 0q-14 0 -22.5 9t-8.5 22v942q0 13 8.5 22t22.5 9h223q13 0 22 -9t9 -22v-942q0 -13 -9 -22t-22 -9h-223z" />
    <glyph glyph-name="j" unicode="j" horiz-adv-x="548" 
d="M283 1182q-67 0 -112.5 45.5t-45.5 111.5q0 65 45.5 110.5t112.5 45.5t111 -45.5t44 -110.5q0 -67 -44 -112t-111 -45zM80 -410q-91 0 -154 31q-18 9 -18 31v186q0 19 26 15q60 -11 84 -11q69 0 95 32t26 93v1006q0 13 8.5 22t22.5 9h223q13 0 22 -9t9 -22v-1045
q0 -171 -89.5 -254.5t-254.5 -83.5z" />
    <glyph glyph-name="k" unicode="k" horiz-adv-x="1150" 
d="M1094 37q11 -15 5.5 -26t-24.5 -11h-237q-24 0 -37 18l-271 367l-124 -141v-213q0 -13 -9 -22t-22 -9h-223q-14 0 -22.5 9t-8.5 22v1403q0 13 8.5 21.5t22.5 8.5h223q14 0 22.5 -8.5t8.5 -21.5v-838l329 391q14 17 37 17h252q20 0 24 -11t-8 -26l-340 -387z" />
    <glyph glyph-name="l" unicode="l" horiz-adv-x="528" 
d="M152 0q-14 0 -22.5 9t-8.5 22v1403q0 13 8.5 21.5t22.5 8.5h223q14 0 22.5 -8.5t8.5 -21.5v-1403q0 -13 -9 -22t-22 -9h-223z" />
    <glyph glyph-name="m" unicode="m" horiz-adv-x="1744" 
d="M1278 1028q162 0 254 -107.5t92 -302.5v-587q0 -13 -9 -22t-22 -9h-221q-14 0 -22.5 9t-8.5 22v526q0 211 -159 211q-80 0 -124 -54.5t-44 -156.5v-526q0 -13 -9 -22t-22 -9h-219q-15 0 -24 8.5t-9 22.5v526q0 211 -160 211q-80 0 -124 -54.5t-44 -156.5v-526
q0 -14 -8.5 -22.5t-21.5 -8.5h-221q-14 0 -22.5 9t-8.5 22v942q0 13 8.5 22t22.5 9h213q30 0 30 -33l6 -109q95 166 283 166q97 0 170.5 -46t114.5 -132q96 178 309 178z" />
    <glyph glyph-name="n" unicode="n" 
d="M707 1028q162 0 262 -110.5t100 -303.5v-583q0 -13 -9.5 -22t-23.5 -9h-219q-13 0 -22 9t-9 22v520q0 106 -47.5 161.5t-138.5 55.5t-144 -56.5t-53 -160.5v-520q0 -14 -8.5 -22.5t-21.5 -8.5h-221q-14 0 -22.5 9t-8.5 22v942q0 13 8.5 22t22.5 9h213q30 0 30 -33l8 -119
q98 176 304 176z" />
    <glyph glyph-name="o" unicode="o" 
d="M596 -25q-226 0 -376 151.5t-150 375.5t150 375t376 151q111 0 208.5 -40.5t166.5 -110.5t109 -167.5t40 -207.5q0 -147 -67.5 -267.5t-188 -190t-268.5 -69.5zM596 236q108 0 180 73t72 193t-72 193t-180 73q-110 0 -182 -72.5t-72 -193.5t72 -193.5t182 -72.5z" />
    <glyph glyph-name="p" unicode="p" horiz-adv-x="1263" 
d="M717 1028q138 0 247 -69.5t168.5 -189t59.5 -267.5t-59.5 -268.5t-168.5 -189.5t-247 -69q-202 0 -311 144v-477q0 -14 -9 -22.5t-22 -8.5h-223q-14 0 -22.5 8.5t-8.5 22.5v1331q0 13 8.5 22t22.5 9h202q14 0 22.5 -9t8.5 -22l4 -111q111 166 328 166zM657 233
q112 0 185 74.5t73 194.5q0 119 -73 193.5t-185 74.5q-114 0 -185 -73.5t-71 -194.5t71 -195t185 -74z" />
    <glyph glyph-name="q" unicode="q" horiz-adv-x="1263" 
d="M1110 1004q14 0 22.5 -9t8.5 -22v-1331q0 -14 -8.5 -22.5t-22.5 -8.5h-223q-13 0 -22 8.5t-9 22.5v475q-110 -142 -309 -142q-210 0 -343.5 150t-133.5 377q0 225 133.5 375.5t343.5 150.5q216 0 327 -166l5 111q0 14 8.5 22.5t21.5 8.5h201zM606 233q113 0 183.5 74
t70.5 195t-70.5 194.5t-183.5 73.5t-186.5 -74.5t-73.5 -193.5q0 -120 73 -194.5t187 -74.5z" />
    <glyph glyph-name="r" unicode="r" horiz-adv-x="792" 
d="M713 1004q18 -13 18 -41v-177q0 -33 -41 -24q-38 10 -74 10q-102 0 -157.5 -65t-55.5 -175v-501q0 -14 -8.5 -22.5t-21.5 -8.5h-221q-14 0 -22.5 9t-8.5 22v942q0 13 8.5 22t22.5 9h213q30 0 30 -33l8 -129q61 186 218 186q60 0 92 -24z" />
    <glyph glyph-name="s" unicode="s" horiz-adv-x="919" 
d="M463 -25q-120 0 -215.5 45.5t-159.5 120.5q-19 22 4 60l72 100q20 31 51 8q67 -50 121 -74t110 -24q53 0 83 21t30 63q0 36 -23 58t-81 46l-127 52q-219 87 -219 274q0 139 102 221t248 82q99 0 186 -39.5t150 -114.5q17 -20 -2 -43l-91 -108q-19 -22 -47 0
q-101 84 -182 84q-47 0 -71.5 -22.5t-24.5 -57.5q0 -63 96 -98l141 -56q229 -92 226 -290q-1 -98 -54 -169t-136.5 -105t-186.5 -34z" />
    <glyph glyph-name="t" unicode="t" horiz-adv-x="749" 
d="M659 784h-157v-485q0 -43 23.5 -65.5t64.5 -22.5q38 0 63 2q37 3 37 -29v-149q0 -32 -53 -46t-117 -14q-133 0 -218 70t-85 223v516h-127q-14 0 -22.5 9t-8.5 22v158q0 13 8.5 22t22.5 9h127v235q0 13 8.5 22t22.5 9h223q13 0 22 -9t9 -22v-235h157q13 0 22 -9t9 -22
v-158q0 -13 -9 -22t-22 -9z" />
    <glyph glyph-name="u" unicode="u" 
d="M1038 1004q14 0 22.5 -9t8.5 -22v-942q0 -13 -8.5 -22t-22.5 -9h-213q-30 0 -30 33l-9 119q-99 -177 -303 -177q-160 0 -260 110.5t-100 303.5v584q0 13 8.5 22t22.5 9h219q14 0 23.5 -9t9.5 -22v-520q0 -106 47 -161.5t137 -55.5q91 0 143.5 56.5t52.5 160.5v520
q0 13 9 22t22 9h221z" />
    <glyph glyph-name="v" unicode="v" horiz-adv-x="1169" 
d="M473 0q-28 0 -37 25l-375 944q-12 35 25 35h225q28 0 37 -25l238 -653l235 653q9 25 37 25h225q37 0 25 -35l-375 -944q-9 -25 -37 -25h-223z" />
    <glyph glyph-name="w" unicode="w" horiz-adv-x="1804" 
d="M414 0q-28 0 -37 25l-316 944q-12 35 25 35h215q28 0 37 -25l201 -651l219 651q9 25 37 25h215q28 0 37 -25l217 -651l200 651q9 25 39 25h213q37 0 25 -35l-314 -944q-9 -25 -36 -25h-228q-28 0 -37 25l-225 651l-223 -651q-9 -25 -37 -25h-227z" />
    <glyph glyph-name="x" unicode="x" horiz-adv-x="1077" 
d="M86 0q-18 0 -23.5 11t3.5 26l303 477l-291 453q-9 15 -3.5 26t23.5 11h242q25 0 37 -21l162 -268l159 268q12 21 37 21h242q19 0 25 -11t-5 -26l-288 -453l301 -477q10 -15 4 -26t-25 -11h-241q-26 0 -37 20l-172 293l-174 -293q-11 -20 -37 -20h-242z" />
    <glyph glyph-name="y" unicode="y" horiz-adv-x="1173" 
d="M328 -389q-18 0 -25 9t0 26l146 352l-388 971q-12 35 25 35h225q28 0 37 -25l240 -651l237 651q9 25 37 25h225q37 0 25 -35l-530 -1334q-9 -24 -37 -24h-217z" />
    <glyph glyph-name="z" unicode="z" horiz-adv-x="962" 
d="M111 0q-13 0 -22 9t-9 22v176q0 25 14 39l471 528h-448q-13 0 -22 9t-9 22v168q0 13 9 22t22 9h731q14 0 22.5 -9t8.5 -22v-176q0 -24 -15 -39l-469 -529h455q14 0 22.5 -8.5t8.5 -21.5v-168q0 -13 -8.5 -22t-22.5 -9h-739z" />
    <glyph glyph-name="braceleft" unicode="{" horiz-adv-x="747" 
d="M604 1526q14 0 22.5 -9t8.5 -22v-168q0 -13 -8.5 -22t-22.5 -9h-41q-33 0 -52 -16.5t-19 -48.5v-445q0 -16 -13 -36l-73 -101q-15 -21 0 -43l73 -98q13 -20 13 -37v-442q0 -32 19 -49t52 -17h41q14 0 22.5 -8.5t8.5 -22.5v-168q0 -13 -8.5 -21.5t-22.5 -8.5h-203
q-37 0 -70 10t-64 32t-49.5 64t-18.5 99v522q0 23 -11 39l-67 106q-13 22 -2 41l69 111q11 19 11 39v524q0 57 18.5 99t50 64t64.5 32t69 10h203z" />
    <glyph glyph-name="bar" unicode="|" horiz-adv-x="577" 
d="M172 -389q-14 0 -22.5 8.5t-8.5 22.5v1966q0 13 8.5 21.5t22.5 8.5h231q14 0 22.5 -8.5t8.5 -21.5v-1966q0 -14 -9 -22.5t-22 -8.5h-231z" />
    <glyph glyph-name="braceright" unicode="}" horiz-adv-x="747" 
d="M143 1526h203q36 0 69.5 -10t64.5 -32t50 -64t19 -99v-524q0 -21 10 -39l70 -111q11 -19 -2 -41l-68 -106q-10 -15 -10 -39v-522q0 -57 -18.5 -99t-49.5 -64t-64.5 -32t-70.5 -10h-203q-13 0 -21.5 8t-8.5 22v168q0 14 8.5 22.5t21.5 8.5h41q33 0 52.5 17t19.5 49v442
q0 19 12 37l74 98q15 22 0 43l-74 101q-12 18 -12 36v445q0 32 -19.5 48.5t-52.5 16.5h-41q-13 0 -21.5 8.5t-8.5 22.5v168q0 14 8.5 22.5t21.5 8.5z" />
    <glyph glyph-name="asciitilde" unicode="~" horiz-adv-x="1075" 
d="M719 418q-50 0 -96.5 16t-81 39t-66 46.5t-65.5 39.5t-66 16q-39 0 -66.5 -18.5t-37.5 -44.5q-9 -18 -25 -18h-70q-22 0 -22 22q0 112 66.5 174t168.5 62q50 0 96 -16.5t80.5 -39.5t66 -46t65.5 -39.5t67 -16.5q37 0 66 18.5t39 42.5q10 19 24 19h68q22 0 22 -21
q1 -115 -65 -175t-168 -60z" />
    <glyph glyph-name="uni00A0" unicode="&#xa0;" horiz-adv-x="399" 
 />
    <glyph glyph-name="exclamdown" unicode="&#xa1;" horiz-adv-x="561" 
d="M281 1092q70 0 120 -49.5t50 -118.5q0 -71 -50 -121.5t-120 -50.5t-119 50.5t-49 121.5q0 69 49 118.5t119 49.5zM199 625h163q31 0 31 -31l33 -932q0 -14 -9 -22.5t-22 -8.5h-227q-14 0 -22.5 8.5t-8.5 22.5l31 932q0 14 9 22.5t22 8.5z" />
    <glyph glyph-name="cent" unicode="&#xa2;" horiz-adv-x="978" 
d="M899 449q17 -21 2 -39q-116 -142 -299 -160v-219q0 -13 -9 -22t-22 -9h-45q-13 0 -21.5 8.5t-8.5 22.5v219q-188 20 -307 152t-119 319q0 185 119.5 314.5t306.5 148.5v219q0 14 8.5 22.5t21.5 8.5h45q13 0 22 -9t9 -22v-219q189 -21 297 -158q15 -22 -2 -39l-113 -106
q-10 -11 -25 -11t-24 11q-61 58 -133 69v-469q72 11 135 74q9 9 23 9.5t26 -9.5zM317 721q0 -85 48.5 -149.5t130.5 -84.5v461q-82 -19 -130.5 -81t-48.5 -146z" />
    <glyph glyph-name="sterling" unicode="&#xa3;" horiz-adv-x="1122" 
d="M1026 1221q8 -10 7 -25t-13 -25l-127 -120q-25 -25 -45 0q-47 64 -100.5 101.5t-131.5 37.5q-91 0 -147.5 -53.5t-56.5 -141.5q0 -45 13.5 -83.5t48.5 -97t44 -75.5h303q31 0 31 -30v-127q0 -31 -31 -31h-256q-3 -186 -145 -311h543q13 0 21.5 -8.5t8.5 -22.5v-178
q0 -14 -8.5 -22.5t-21.5 -8.5h-840q-13 0 -22 9t-9 22v209q90 45 149.5 116t59.5 172q0 15 -2 23h-174q-14 0 -23.5 9t-9.5 22v127q0 13 9.5 22.5t23.5 9.5h100q-30 55 -44.5 86t-30 87.5t-15.5 111.5q0 182 129.5 303t331.5 121q146 0 253 -64t177 -165z" />
    <glyph glyph-name="currency" unicode="&#xa4;" horiz-adv-x="1232" 
d="M1071 975q0 -122 -59 -225l98 -99l-147 -145l-93 90q-116 -80 -258 -80q-138 0 -254 76l-88 -86l-147 145l92 94q-61 106 -61 230q0 123 61 229l-92 94l147 146l88 -86q116 76 254 76q142 0 258 -80l93 90l147 -146l-98 -98q59 -103 59 -225zM612 705q66 0 119 25.5
t85 66.5t48.5 87t16.5 91q0 44 -16.5 90t-48 87t-85 67t-119.5 26q-65 0 -118 -26t-84.5 -67t-48.5 -87t-17 -90q0 -45 17 -91t48.5 -87t84.5 -66.5t118 -25.5z" />
    <glyph glyph-name="yen" unicode="&#xa5;" horiz-adv-x="1284" 
d="M1188 1434q39 0 20 -37l-417 -733h163q13 0 22 -9.5t9 -23.5v-125q0 -14 -8.5 -22.5t-22.5 -8.5h-166v-63h166q14 0 22.5 -9t8.5 -22v-125q0 -14 -8.5 -22.5t-22.5 -8.5h-166v-194q0 -14 -8.5 -22.5t-21.5 -8.5h-232q-13 0 -21.5 8.5t-8.5 22.5v194h-164q-14 0 -23.5 9
t-9.5 22v125q0 13 9.5 22t23.5 9h164v63h-164q-14 0 -23.5 9t-9.5 22v125q0 13 9.5 23t23.5 10h164l-420 733q-19 37 20 37h242q25 0 37 -21l268 -481l266 481q12 21 37 21h242z" />
    <glyph glyph-name="brokenbar" unicode="&#xa6;" horiz-adv-x="577" 
d="M172 1004q-14 0 -22.5 8.5t-8.5 21.5v574q0 13 8.5 21.5t22.5 8.5h231q14 0 22.5 -8.5t8.5 -21.5v-574q0 -13 -8.5 -21.5t-22.5 -8.5h-231zM172 -389q-14 0 -22.5 8.5t-8.5 22.5v573q0 13 8.5 22t22.5 9h231q13 0 22 -9t9 -22v-573q0 -14 -9 -22.5t-22 -8.5h-231z" />
    <glyph glyph-name="section" unicode="&#xa7;" horiz-adv-x="962" 
d="M774 496q78 -75 78 -199q0 -150 -106.5 -229.5t-264.5 -79.5q-120 0 -220 45t-163 119q-14 20 0 43l84 122q15 20 45 0q142 -94 236 -94q51 0 81.5 19.5t30.5 56.5q0 39 -24 60.5t-86 46.5l-123 49q-221 88 -221 276q0 139 104 223q-86 77 -86 197q0 139 102.5 221
t250.5 82q99 0 187 -39t152 -112q15 -17 -2 -43l-92 -109q-19 -22 -47 0q-107 80 -184 80q-50 0 -75 -21.5t-25 -54.5q0 -34 25 -55t75 -41l141 -55q49 -20 84.5 -41.5t69.5 -55t51.5 -81.5t17.5 -109q0 -138 -96 -221zM385 735q0 -31 25 -52.5t71 -41.5q51 0 83 20.5
t32 57.5q0 31 -16.5 50.5t-53.5 37.5q-24 4 -39 4q-50 0 -76 -21.5t-26 -54.5z" />
    <glyph glyph-name="dieresis" unicode="&#xa8;" horiz-adv-x="794" 
d="M172 1159q-58 0 -99.5 41.5t-41.5 102.5q0 59 41.5 100t99.5 41q59 0 100 -40.5t41 -100.5q0 -61 -41 -102.5t-100 -41.5zM623 1159q-59 0 -100.5 41.5t-41.5 102.5q0 60 41.5 100.5t100.5 40.5t100 -40.5t41 -100.5q0 -61 -41 -102.5t-100 -41.5z" />
    <glyph glyph-name="copyright" unicode="&#xa9;" horiz-adv-x="1370" 
d="M684 279q-159 0 -293 77t-212.5 212t-78.5 296t78.5 296t212.5 212.5t293 77.5t293 -77.5t212.5 -212.5t78.5 -296t-78.5 -296t-212.5 -212t-293 -77zM684 442q175 0 295.5 122t120.5 300t-120.5 300t-295.5 122q-174 0 -294 -122t-120 -300t120 -300t294 -122zM698 573
q-123 0 -206.5 84t-83.5 207t83.5 207t206.5 84q139 0 215 -98q11 -14 0 -25l-69 -65q-14 -13 -27 0q-52 45 -110 45q-64 0 -105 -42t-41 -106q0 -63 41 -105t105 -42q58 0 110 45q13 14 27 0l69 -66q10 -10 0 -24q-36 -46 -92 -72.5t-123 -26.5z" />
    <glyph glyph-name="ordfeminine" unicode="&#xaa;" horiz-adv-x="888" 
d="M641 1434h176v-736h-176l-16 78q-95 -78 -215 -78q-147 0 -243.5 107t-96.5 266t96.5 266t243.5 107q120 0 215 -78zM444 897q76 0 126.5 49t50.5 125t-51 126t-126 50t-124.5 -50t-49.5 -126t49.5 -125t124.5 -49z" />
    <glyph glyph-name="guillemotleft" unicode="&#xab;" horiz-adv-x="884" 
d="M412 262q0 -19 -12.5 -21.5t-24.5 7.5l-266 190q-17 14 -17 35v172q0 21 17 35l266 190q12 10 24.5 7t12.5 -21v-149q0 -26 -17 -37l-172 -111l172 -113q17 -11 17 -36v-148zM795 262q0 -19 -13.5 -21.5t-25.5 7.5l-267 190q-16 13 -16 35v172q0 22 16 35l267 190
q12 10 25.5 7t13.5 -21v-149q0 -26 -17 -37l-174 -111l174 -113q17 -11 17 -36v-148z" />
    <glyph glyph-name="logicalnot" unicode="&#xac;" horiz-adv-x="1120" 
d="M750 260q-14 0 -22.5 9t-8.5 22v119h-565q-14 0 -22.5 8.5t-8.5 21.5v168q0 14 9 23.5t22 9.5h813q13 0 21.5 -9.5t8.5 -23.5v-317q0 -14 -8.5 -22.5t-21.5 -8.5h-217z" />
    <glyph glyph-name="uni00AD" unicode="&#xad;" horiz-adv-x="880" 
d="M748 682q13 0 21.5 -8.5t8.5 -22.5v-168q0 -13 -8 -21.5t-22 -8.5h-615q-14 0 -22.5 8.5t-8.5 21.5v168q0 13 9 22t22 9h615z" />
    <glyph glyph-name="registered" unicode="&#xae;" horiz-adv-x="1370" 
d="M684 1450q159 0 293 -77.5t212.5 -212.5t78.5 -296t-78.5 -296t-212.5 -212t-293 -77t-293 77t-212.5 212t-78.5 296t78.5 296t212.5 212.5t293 77.5zM684 442q174 0 295 122t121 300t-121 300t-295 122t-294 -122t-120 -300t120 -300t294 -122zM823 772l131 -147
q6 -7 3.5 -14t-11.5 -7h-129q-12 0 -20 8l-129 150h-58v-141q0 -17 -14 -17h-113q-16 0 -16 17v491q0 16 16 16h244q104 0 166.5 -44t62.5 -138q0 -136 -133 -174zM729 1012h-119v-133h119q36 0 57 17.5t21 49.5q0 31 -21 48.5t-57 17.5z" />
    <glyph glyph-name="macron" unicode="&#xaf;" horiz-adv-x="745" 
d="M682 1434q14 0 23.5 -9t9.5 -22v-158q0 -13 -9.5 -22t-23.5 -9h-621q-13 0 -21.5 8.5t-8.5 22.5v158q0 14 8.5 22.5t21.5 8.5h621z" />
    <glyph glyph-name="degree" unicode="&#xb0;" horiz-adv-x="851" 
d="M426 864q-126 0 -214.5 88t-88.5 215q0 124 88.5 211.5t214.5 87.5t214.5 -87.5t88.5 -211.5q0 -127 -88.5 -215t-214.5 -88zM426 1034q62 0 95.5 41.5t33.5 91.5q0 47 -33.5 88t-95.5 41t-95.5 -41t-33.5 -88q0 -50 33.5 -91.5t95.5 -41.5z" />
    <glyph glyph-name="plusminus" unicode="&#xb1;" horiz-adv-x="991" 
d="M827 752q13 0 22 -9t9 -22v-148q0 -13 -8.5 -21.5t-22.5 -8.5h-227v-228q0 -13 -8.5 -21.5t-22.5 -8.5h-147q-14 0 -22.5 8.5t-8.5 21.5v228h-227q-14 0 -22.5 8.5t-8.5 21.5v148q0 13 8.5 22t22.5 9h227v227q0 13 8.5 22t22.5 9h147q13 0 22 -9t9 -22v-227h227zM827 176
q13 0 22 -9t9 -22v-114q0 -13 -9 -22t-22 -9h-663q-14 0 -22.5 9t-8.5 22v114q0 13 8.5 22t22.5 9h663z" />
    <glyph glyph-name="uni00B2" unicode="&#xb2;" horiz-adv-x="536" 
d="M264 1442q88 0 139.5 -45t51.5 -111q0 -55 -32 -96t-114 -113q-9 -8 -14 -12l-72 -61h223v-103h-360v103l139 122l27 24l25 22l19 18l18 19l12 16l10 17l6 16l2 20q0 29 -22.5 48.5t-57.5 19.5q-31 0 -52.5 -20.5t-21.5 -53.5v-27h-108v29q0 77 48.5 122.5t133.5 45.5z
" />
    <glyph glyph-name="uni00B3" unicode="&#xb3;" horiz-adv-x="573" 
d="M279 1440q86 0 138 -39.5t52 -104.5q0 -78 -78 -110q43 -15 72 -47.5t29 -81.5q0 -77 -57.5 -120.5t-153.5 -43.5q-101 0 -150 48.5t-49 135.5h106q0 -43 24.5 -66.5t70.5 -23.5q44 0 71 19.5t27 54.5q0 41 -33 56.5t-104 15.5v79q116 0 116 72q0 27 -22.5 44.5
t-61.5 17.5q-81 0 -81 -86h-107q-1 89 49.5 134.5t141.5 45.5z" />
    <glyph glyph-name="acute" unicode="&#xb4;" horiz-adv-x="448" 
d="M389 1434q18 0 25.5 -9t-0.5 -26l-123 -234q-13 -24 -37 -24h-195q-18 0 -25 9t1 26l121 233q14 25 34 25h199z" />
    <glyph glyph-name="uni00B5" unicode="&#xb5;" 
d="M1038 1004q14 0 22.5 -9t8.5 -22v-942q0 -13 -8.5 -22t-22.5 -9h-213q-30 0 -30 33l-9 119q-99 -177 -303 -177q-43 0 -80 9v-342q0 -14 -8.5 -22.5t-21.5 -8.5h-221q-14 0 -22.5 8.5t-8.5 22.5v1122h2v209q0 13 8.5 22t22.5 9h219q14 0 23.5 -9t9.5 -22v-520
q0 -106 47 -161.5t137 -55.5q91 0 143.5 56.5t52.5 160.5v520q0 13 9 22t22 9h221z" />
    <glyph glyph-name="paragraph" unicode="&#xb6;" horiz-adv-x="1644" 
d="M1036 0h-231q-13 0 -22 9t-9 22v471h-170q-248 0 -376 126.5t-128 340.5q0 213 128.5 339t375.5 126h432q14 0 22.5 -9t8.5 -22v-1372q0 -13 -8.5 -22t-22.5 -9zM1239 0q-13 0 -22 9t-9 22v1372q0 13 9 22t22 9h231q14 0 22.5 -9t8.5 -22v-1372q0 -13 -8.5 -22t-22.5 -9
h-231zM774 762v412h-160q-233 0 -233 -205q0 -207 233 -207h160z" />
    <glyph glyph-name="periodcentered" unicode="&#xb7;" horiz-adv-x="542" 
d="M270 420q-69 0 -118.5 49t-49.5 119t49.5 120t118.5 50q70 0 120 -50t50 -120t-49.5 -119t-120.5 -49z" />
    <glyph glyph-name="cedilla" unicode="&#xb8;" horiz-adv-x="442" 
d="M229 -68q74 -7 128.5 -52t54.5 -118q0 -87 -55 -140t-135 -67t-173 1q-18 3 -18 22v98q0 21 22 21q82 -9 126 5.5t44 47.5q0 29 -48 42t-120 -9q-11 -4 -17.5 -0.5t-6.5 14.5v103q0 17 10 24l80 76h184z" />
    <glyph glyph-name="uni00B9" unicode="&#xb9;" horiz-adv-x="358" 
d="M238 1436v-535h-109v430h-57v105h166z" />
    <glyph glyph-name="ordmasculine" unicode="&#xba;" horiz-adv-x="890" 
d="M444 698q-160 0 -267 106.5t-107 266.5t107 266.5t267 106.5t267.5 -106.5t107.5 -266.5t-107.5 -266.5t-267.5 -106.5zM444 897q75 0 126 49.5t51 124.5t-51 125.5t-126 50.5t-124.5 -50.5t-49.5 -125.5t49.5 -124.5t124.5 -49.5z" />
    <glyph glyph-name="guillemotright" unicode="&#xbb;" horiz-adv-x="884" 
d="M92 262v148q0 25 17 36l172 113l-172 111q-17 11 -17 37v149q0 18 12.5 21t24.5 -7l266 -190q17 -14 17 -35v-172q0 -21 -17 -35l-266 -190q-12 -10 -24.5 -7.5t-12.5 21.5zM473 262v148q0 25 16 36l173 113l-173 111q-16 11 -16 37v149q0 18 12.5 21t26.5 -7l266 -190
q17 -14 17 -35v-172q0 -21 -17 -35l-266 -190q-14 -10 -26.5 -7.5t-12.5 21.5z" />
    <glyph glyph-name="onequarter" unicode="&#xbc;" horiz-adv-x="1245" 
d="M248 1436v-535h-109v430h-57v105h166zM1073 1434l-846 -1434h-121l846 1434h121zM1098 535v-320h55v-104h-55v-111h-109v111h-282l282 424h109zM989 383l-108 -168h108v168z" />
    <glyph glyph-name="onehalf" unicode="&#xbd;" horiz-adv-x="1204" 
d="M248 1436v-535h-109v430h-57v105h166zM1073 1434l-846 -1434h-121l846 1434h121zM924 541q87 0 137.5 -45t50.5 -111q0 -31 -8.5 -55.5t-34.5 -54.5t-46 -48.5t-71 -62.5l-69 -62h223v-102h-361v102l140 123l27 24l25 22l19 19l18 18l12 16l10 17l6 17l2 19
q0 29 -22.5 48t-57.5 19q-33 0 -53.5 -20t-20.5 -53v-27h-109v29q0 77 48.5 122.5t134.5 45.5z" />
    <glyph glyph-name="threequarters" unicode="&#xbe;" horiz-adv-x="1277" 
d="M279 1440q86 0 138 -39.5t52 -104.5q0 -78 -78 -110q43 -15 72 -47.5t29 -81.5q0 -77 -57.5 -120.5t-153.5 -43.5q-101 0 -150 48.5t-49 135.5h106q0 -43 24.5 -66.5t70.5 -23.5q44 0 71 19.5t27 54.5q0 41 -33 56.5t-104 15.5v79q116 0 116 72q0 27 -22.5 44.5
t-61.5 17.5q-81 0 -81 -86h-107q-1 89 49.5 134.5t141.5 45.5zM1137 1434l-846 -1434h-121l846 1434h121zM1141 535v-320h55v-104h-55v-111h-109v111h-282l282 424h109zM1032 383l-108 -168h108v168z" />
    <glyph glyph-name="questiondown" unicode="&#xbf;" horiz-adv-x="950" 
d="M459 1092q70 0 119 -49.5t49 -118.5q0 -71 -49 -121.5t-119 -50.5t-119 50.5t-49 121.5q0 69 49 118.5t119 49.5zM549 623q13 0 22 -8.5t9 -22.5l2 -78q2 -63 -11.5 -114t-36 -85t-50.5 -62t-56 -51.5t-51.5 -47t-38 -55t-14.5 -68.5q0 -66 43 -104t110 -38
q125 0 191 154q17 27 49 8l127 -78q43 -25 33 -59q-43 -133 -157.5 -216t-277.5 -83q-78 0 -149 21.5t-128.5 63.5t-91.5 112t-34 159q0 61 15.5 112.5t40 87.5t55 67.5t61.5 61t57.5 59t45 69.5t22.5 86l6 78q3 31 31 31h176z" />
    <glyph glyph-name="Agrave" unicode="&#xc0;" horiz-adv-x="1427" 
d="M575 1595l-122 234q-8 17 -1 26t25 9h199q21 0 35 -25l120 -233q8 -17 1 -26t-25 -9h-197q-22 0 -35 24zM1356 35q6 -15 -2 -25t-25 -10h-242q-26 0 -34 25l-70 211h-541l-69 -211q-8 -25 -35 -25h-242q-17 0 -23.5 10t-0.5 25l479 1374q9 25 39 25h248q30 0 39 -25z
M526 496h373l-186 569z" />
    <glyph glyph-name="Aacute" unicode="&#xc1;" horiz-adv-x="1427" 
d="M623 1571q-18 0 -25.5 9t0.5 26l121 233q14 25 35 25h198q18 0 25.5 -9t-0.5 -26l-123 -234q-13 -24 -35 -24h-196zM1356 35q6 -15 -2 -25t-25 -10h-242q-26 0 -34 25l-70 211h-541l-69 -211q-8 -25 -35 -25h-242q-17 0 -23.5 10t-0.5 25l479 1374q9 25 39 25h248
q30 0 39 -25zM526 496h373l-186 569z" />
    <glyph glyph-name="Acircumflex" unicode="&#xc2;" horiz-adv-x="1427" 
d="M416 1587q-18 0 -22 12.5t7 24.5l187 223q14 17 35 17h180q21 0 35 -17l186 -223q13 -12 9 -24.5t-23 -12.5h-148q-23 0 -37 17l-112 135l-111 -135q-14 -17 -37 -17h-149zM1356 35q6 -15 -2 -25t-25 -10h-242q-26 0 -34 25l-70 211h-541l-69 -211q-8 -25 -35 -25h-242
q-17 0 -23.5 10t-0.5 25l479 1374q9 25 39 25h248q30 0 39 -25zM526 496h373l-186 569z" />
    <glyph glyph-name="Atilde" unicode="&#xc3;" horiz-adv-x="1427" 
d="M356 1675q-20 0 -20 27q7 102 66.5 154.5t152.5 52.5q45 0 86.5 -15t71.5 -36t58 -42t59 -36t61 -15q34 0 59 17t35 41q6 16 23 16h63q21 0 21 -20q-6 -105 -66.5 -160t-153.5 -55q-45 0 -85.5 15t-71 36t-58.5 42.5t-59 36.5t-61 15q-35 0 -60 -16.5t-35 -40.5
q-7 -17 -22 -17h-64zM1356 35q6 -15 -2 -25t-25 -10h-242q-26 0 -34 25l-70 211h-541l-69 -211q-8 -25 -35 -25h-242q-17 0 -23.5 10t-0.5 25l479 1374q9 25 39 25h248q30 0 39 -25zM526 496h373l-186 569z" />
    <glyph glyph-name="Adieresis" unicode="&#xc4;" horiz-adv-x="1427" 
d="M487 1589q-58 0 -99.5 41.5t-41.5 102.5q0 59 41.5 100t99.5 41q59 0 100.5 -40.5t41.5 -100.5q0 -61 -41.5 -102.5t-100.5 -41.5zM938 1589q-59 0 -100 41.5t-41 102.5q0 60 41 100.5t100 40.5t100 -40.5t41 -100.5q0 -61 -41 -102.5t-100 -41.5zM1356 35q6 -15 -2 -25
t-25 -10h-242q-26 0 -34 25l-70 211h-541l-69 -211q-8 -25 -35 -25h-242q-17 0 -23.5 10t-0.5 25l479 1374q9 25 39 25h248q30 0 39 -25zM526 496h373l-186 569z" />
    <glyph glyph-name="Aring" unicode="&#xc5;" horiz-adv-x="1427" 
d="M713 1534q-94 0 -152.5 58.5t-58.5 146.5q0 87 59 148t152 61t152 -61t59 -148q0 -88 -58.5 -146.5t-152.5 -58.5zM713 1790q-21 0 -35 -14t-14 -35t14 -35t35 -14t35 14t14 35t-14 35t-35 14zM1356 35q6 -15 -2 -25t-25 -10h-242q-26 0 -34 25l-70 211h-541l-69 -211
q-8 -25 -35 -25h-242q-17 0 -23.5 10t-0.5 25l479 1374q9 25 39 25h248q30 0 39 -25zM526 496h373l-186 569z" />
    <glyph glyph-name="AE" unicode="&#xc6;" horiz-adv-x="1759" 
d="M1608 1174h-467v-318h440q13 0 22 -9t9 -22v-198q0 -13 -9 -22t-22 -9h-440v-336h467q13 0 21.5 -8.5t8.5 -22.5v-198q0 -14 -8.5 -22.5t-21.5 -8.5h-729q-13 0 -22 9t-9 22v260h-365l-108 -266q-11 -25 -35 -25h-244q-17 0 -23.5 10t-0.5 25l606 1374q9 25 35 25h895
q13 0 21.5 -8.5t8.5 -22.5v-199q0 -14 -8 -22t-22 -8zM586 539h262v645z" />
    <glyph glyph-name="Ccedilla" unicode="&#xc7;" horiz-adv-x="1441" 
d="M1198 377l143 -154q21 -21 0 -41q-183 -186 -444 -207l-49 -43q74 -7 128 -52t54 -118q0 -87 -54.5 -140t-134.5 -67t-173 1q-19 3 -19 22v98q0 21 23 21q82 -9 126 5.5t44 47.5q0 29 -48 42t-120 -9q-10 -5 -17.5 -0.5t-7.5 14.5v103q0 17 10 24l62 58
q-175 27 -316.5 127.5t-223 258t-81.5 343.5q0 206 99 376t268.5 266.5t372.5 96.5q294 0 501 -207q20 -20 0 -43l-143 -153q-20 -23 -43 -3q-142 119 -315 119q-189 0 -316 -129t-127 -323t126.5 -322.5t316.5 -128.5q173 0 315 119q24 20 43 -2z" />
    <glyph glyph-name="Egrave" unicode="&#xc8;" horiz-adv-x="1054" 
d="M324 1864h198q21 0 35 -25l121 -233q8 -17 0.5 -26t-25.5 -9h-196q-22 0 -35 24l-123 234q-8 17 -0.5 26t25.5 9zM172 0q-14 0 -22.5 9t-8.5 22v1372q0 13 8.5 22t22.5 9h729q13 0 22 -9t9 -22v-199q0 -13 -8.5 -21.5t-22.5 -8.5h-467v-318h440q14 0 22.5 -9t8.5 -22
v-198q0 -13 -8.5 -22t-22.5 -9h-440v-336h467q13 0 22 -9t9 -22v-198q0 -13 -9 -22t-22 -9h-729z" />
    <glyph glyph-name="Eacute" unicode="&#xc9;" horiz-adv-x="1054" 
d="M799 1864q18 0 25 -9t-1 -26l-123 -234q-13 -24 -34 -24h-197q-18 0 -25.5 9t0.5 26l121 233q14 25 35 25h199zM172 0q-14 0 -22.5 9t-8.5 22v1372q0 13 8.5 22t22.5 9h729q13 0 22 -9t9 -22v-199q0 -13 -8.5 -21.5t-22.5 -8.5h-467v-318h440q14 0 22.5 -9t8.5 -22v-198
q0 -13 -8.5 -22t-22.5 -9h-440v-336h467q13 0 22 -9t9 -22v-198q0 -13 -9 -22t-22 -9h-729z" />
    <glyph glyph-name="Ecircumflex" unicode="&#xca;" horiz-adv-x="1054" 
d="M262 1587q-18 0 -21.5 12.5t7.5 24.5l186 223q14 17 35 17h180q21 0 35 -17l186 -223q13 -12 9 -24.5t-23 -12.5h-147q-23 0 -37 17l-113 135l-110 -135q-14 -17 -37 -17h-150zM172 0q-14 0 -22.5 9t-8.5 22v1372q0 13 8.5 22t22.5 9h729q13 0 22 -9t9 -22v-199
q0 -13 -8.5 -21.5t-22.5 -8.5h-467v-318h440q14 0 22.5 -9t8.5 -22v-198q0 -13 -8.5 -22t-22.5 -9h-440v-336h467q13 0 22 -9t9 -22v-198q0 -13 -9 -22t-22 -9h-729z" />
    <glyph glyph-name="Edieresis" unicode="&#xcb;" horiz-adv-x="1054" 
d="M334 1589q-58 0 -99.5 41.5t-41.5 102.5q0 59 41.5 100t99.5 41q59 0 100 -40.5t41 -100.5q0 -61 -41 -102.5t-100 -41.5zM784 1589q-59 0 -100 41.5t-41 102.5q0 60 41 100.5t100 40.5t100.5 -40.5t41.5 -100.5q0 -61 -41.5 -102.5t-100.5 -41.5zM172 0q-14 0 -22.5 9
t-8.5 22v1372q0 13 8.5 22t22.5 9h729q13 0 22 -9t9 -22v-199q0 -13 -8.5 -21.5t-22.5 -8.5h-467v-318h440q14 0 22.5 -9t8.5 -22v-198q0 -13 -8.5 -22t-22.5 -9h-440v-336h467q13 0 22 -9t9 -22v-198q0 -13 -9 -22t-22 -9h-729z" />
    <glyph glyph-name="Igrave" unicode="&#xcc;" horiz-adv-x="577" 
d="M51 1864h199q21 0 35 -25l121 -233q8 -17 0.5 -26t-25.5 -9h-197q-21 0 -34 24l-123 234q-8 17 -1 26t25 9zM172 0q-14 0 -22.5 9t-8.5 22v1372q0 13 8.5 22t22.5 9h231q13 0 22 -9t9 -22v-1372q0 -13 -9 -22t-22 -9h-231z" />
    <glyph glyph-name="Iacute" unicode="&#xcd;" horiz-adv-x="577" 
d="M526 1864q18 0 25.5 -9t-0.5 -26l-123 -234q-13 -24 -35 -24h-196q-18 0 -25.5 9t0.5 26l121 233q14 25 35 25h198zM172 0q-14 0 -22.5 9t-8.5 22v1372q0 13 8.5 22t22.5 9h231q13 0 22 -9t9 -22v-1372q0 -13 -9 -22t-22 -9h-231z" />
    <glyph glyph-name="Icircumflex" unicode="&#xce;" horiz-adv-x="577" 
d="M-8 1587q-18 0 -22 12.5t7 24.5l187 223q14 17 35 17h180q21 0 35 -17l186 -223q13 -12 9 -24.5t-23 -12.5h-148q-23 0 -37 17l-112 135l-111 -135q-14 -17 -37 -17h-149zM172 0q-14 0 -22.5 9t-8.5 22v1372q0 13 8.5 22t22.5 9h231q13 0 22 -9t9 -22v-1372q0 -13 -9 -22
t-22 -9h-231z" />
    <glyph glyph-name="Idieresis" unicode="&#xcf;" horiz-adv-x="577" 
d="M63 1589q-58 0 -99.5 41.5t-41.5 102.5q0 59 41.5 100t99.5 41q59 0 100.5 -40.5t41.5 -100.5q0 -61 -41.5 -102.5t-100.5 -41.5zM514 1589q-59 0 -100 41.5t-41 102.5q0 60 41 100.5t100 40.5t100 -40.5t41 -100.5q0 -61 -41 -102.5t-100 -41.5zM172 0q-14 0 -22.5 9
t-8.5 22v1372q0 13 8.5 22t22.5 9h231q13 0 22 -9t9 -22v-1372q0 -13 -9 -22t-22 -9h-231z" />
    <glyph glyph-name="Eth" unicode="&#xd0;" horiz-adv-x="1431" 
d="M610 1434q175 0 315.5 -55t230.5 -152.5t137.5 -227.5t47.5 -282t-47.5 -282t-137.5 -227.5t-230.5 -152.5t-315.5 -55h-422q-13 0 -21.5 8.5t-8.5 22.5v565h-76q-14 0 -22.5 9t-8.5 22v157q0 14 8.5 22.5t22.5 8.5h76v588q0 14 8.5 22.5t21.5 8.5h422zM606 260
q217 0 327.5 117t110.5 340t-110.5 340t-327.5 117h-155v-359h251q14 0 23.5 -9t9.5 -22v-157q0 -13 -9.5 -22t-23.5 -9h-251v-336h155z" />
    <glyph glyph-name="Ntilde" unicode="&#xd1;" horiz-adv-x="1427" 
d="M356 1675q-20 0 -20 27q7 102 66.5 154.5t152.5 52.5q45 0 86.5 -15t71.5 -36t58 -42t59 -36t61 -15q34 0 59 17t35 41q6 16 23 16h63q21 0 21 -20q-6 -105 -66.5 -160t-153.5 -55q-45 0 -85.5 15t-71 36t-58.5 42.5t-59 36.5t-61 15q-35 0 -60 -16.5t-35 -40.5
q-7 -17 -22 -17h-64zM1255 1434q13 0 22 -9t9 -22v-1372q0 -13 -9 -22t-22 -9h-272q-26 0 -37 20l-512 945v-934q0 -13 -9 -22t-22 -9h-231q-14 0 -22.5 9t-8.5 22v1372q0 13 8.5 22t22.5 9h272q25 0 37 -21l512 -944v934q0 13 8.5 22t22.5 9h231z" />
    <glyph glyph-name="Ograve" unicode="&#xd2;" horiz-adv-x="1677" 
d="M602 1864h199q21 0 35 -25l120 -233q8 -17 1 -26t-25 -9h-197q-22 0 -35 24l-122 234q-8 17 -1 26t25 9zM838 -27q-201 0 -370.5 97.5t-268.5 267.5t-99 373q0 204 99 374.5t268.5 267.5t370.5 97q151 0 287 -57.5t235 -155.5t157 -235.5t58 -290.5q0 -203 -98.5 -373
t-268 -267.5t-370.5 -97.5zM838 260q189 0 314.5 129.5t125.5 321.5q0 194 -125.5 323t-314.5 129q-188 0 -314.5 -129.5t-126.5 -322.5q0 -192 126.5 -321.5t314.5 -129.5z" />
    <glyph glyph-name="Oacute" unicode="&#xd3;" horiz-adv-x="1677" 
d="M1077 1864q18 0 25.5 -9t-0.5 -26l-123 -234q-13 -24 -35 -24h-196q-18 0 -25.5 9t0.5 26l121 233q14 25 35 25h198zM838 -27q-201 0 -370.5 97.5t-268.5 267.5t-99 373q0 204 99 374.5t268.5 267.5t370.5 97q151 0 287 -57.5t235 -155.5t157 -235.5t58 -290.5
q0 -203 -98.5 -373t-268 -267.5t-370.5 -97.5zM838 260q189 0 314.5 129.5t125.5 321.5q0 194 -125.5 323t-314.5 129q-188 0 -314.5 -129.5t-126.5 -322.5q0 -192 126.5 -321.5t314.5 -129.5z" />
    <glyph glyph-name="Ocircumflex" unicode="&#xd4;" horiz-adv-x="1677" 
d="M541 1587q-18 0 -22 12.5t7 24.5l187 223q14 17 35 17h180q21 0 35 -17l186 -223q13 -12 9 -24.5t-23 -12.5h-148q-23 0 -37 17l-112 135l-111 -135q-14 -17 -37 -17h-149zM838 -27q-201 0 -370.5 97.5t-268.5 267.5t-99 373q0 204 99 374.5t268.5 267.5t370.5 97
q151 0 287 -57.5t235 -155.5t157 -235.5t58 -290.5q0 -203 -98.5 -373t-268 -267.5t-370.5 -97.5zM838 260q189 0 314.5 129.5t125.5 321.5q0 194 -125.5 323t-314.5 129q-188 0 -314.5 -129.5t-126.5 -322.5q0 -192 126.5 -321.5t314.5 -129.5z" />
    <glyph glyph-name="Otilde" unicode="&#xd5;" horiz-adv-x="1677" 
d="M680 1909q45 0 86.5 -15t71.5 -36t58 -42t59 -36t61 -15q34 0 59 17t35 41q6 16 23 16h63q21 0 21 -20q-6 -105 -66.5 -160t-153.5 -55q-45 0 -85.5 15t-71 36t-58.5 42.5t-59 36.5t-61 15q-35 0 -60 -16.5t-35 -40.5q-7 -17 -22 -17h-64q-20 0 -20 27q7 102 66.5 154.5
t152.5 52.5zM838 -27q-201 0 -370.5 97.5t-268.5 267.5t-99 373q0 204 99 374.5t268.5 267.5t370.5 97q151 0 287 -57.5t235 -155.5t157 -235.5t58 -290.5q0 -203 -98.5 -373t-268 -267.5t-370.5 -97.5zM838 260q189 0 314.5 129.5t125.5 321.5q0 194 -125.5 323t-314.5 129
q-188 0 -314.5 -129.5t-126.5 -322.5q0 -192 126.5 -321.5t314.5 -129.5z" />
    <glyph glyph-name="Odieresis" unicode="&#xd6;" horiz-adv-x="1677" 
d="M612 1589q-58 0 -99.5 41.5t-41.5 102.5q0 59 41.5 100t99.5 41q59 0 100.5 -40.5t41.5 -100.5q0 -61 -41.5 -102.5t-100.5 -41.5zM1063 1589q-59 0 -100 41.5t-41 102.5q0 60 41 100.5t100 40.5t100 -40.5t41 -100.5q0 -61 -41 -102.5t-100 -41.5zM838 -27
q-201 0 -370.5 97.5t-268.5 267.5t-99 373q0 204 99 374.5t268.5 267.5t370.5 97q151 0 287 -57.5t235 -155.5t157 -235.5t58 -290.5q0 -203 -98.5 -373t-268 -267.5t-370.5 -97.5zM838 260q189 0 314.5 129.5t125.5 321.5q0 194 -125.5 323t-314.5 129
q-188 0 -314.5 -129.5t-126.5 -322.5q0 -192 126.5 -321.5t314.5 -129.5z" />
    <glyph glyph-name="multiply" unicode="&#xd7;" horiz-adv-x="903" 
d="M600 586l160 -162q19 -22 0 -45l-105 -103q-9 -10 -21.5 -10t-21.5 10l-159 162l-162 -162q-23 -22 -45 0l-103 103q-23 23 0 45l162 162l-162 159q-11 9 -11 21.5t11 21.5l103 105q23 19 45 0l162 -160l159 160q9 9 21.5 9t21.5 -9l105 -105q9 -9 9 -21.5t-9 -21.5z" />
    <glyph glyph-name="Oslash" unicode="&#xd8;" horiz-adv-x="1677" 
d="M1227 1339q160 -99 254 -264t94 -364q0 -203 -98.5 -373t-268 -267.5t-370.5 -97.5q-120 0 -230 35l-41 -88q-9 -22 -35 -22h-131q-17 0 -23 9.5t1 26.5l70 148q-160 99 -254.5 265.5t-94.5 363.5q0 204 99 374.5t268.5 267.5t370.5 97q121 0 231 -37l41 90q10 23 35 23
h129q17 0 23 -10t-1 -27zM397 711q0 -112 46.5 -207t127.5 -156l375 803q-52 12 -108 12q-188 0 -314.5 -129.5t-126.5 -322.5zM838 260q189 0 314.5 129.5t125.5 321.5q0 113 -46.5 208t-127.5 156l-373 -803q53 -12 107 -12z" />
    <glyph glyph-name="Ugrave" unicode="&#xd9;" horiz-adv-x="1345" 
d="M436 1864h199q21 0 35 -25l121 -233q8 -17 0.5 -26t-25.5 -9h-197q-21 0 -34 24l-123 234q-8 17 -1 26t25 9zM674 -27q-245 0 -394 148.5t-149 423.5v858q0 13 8.5 22t22.5 9h231q13 0 22 -9t9 -22v-852q0 -140 65.5 -215.5t184.5 -75.5q118 0 183 75.5t65 215.5v852
q0 14 8.5 22.5t21.5 8.5h232q13 0 21.5 -8.5t8.5 -22.5v-858q0 -275 -148 -423.5t-392 -148.5z" />
    <glyph glyph-name="Uacute" unicode="&#xda;" horiz-adv-x="1345" 
d="M911 1864q18 0 25.5 -9t-0.5 -26l-123 -234q-13 -24 -35 -24h-196q-18 0 -25.5 9t0.5 26l121 233q14 25 35 25h198zM674 -27q-245 0 -394 148.5t-149 423.5v858q0 13 8.5 22t22.5 9h231q13 0 22 -9t9 -22v-852q0 -140 65.5 -215.5t184.5 -75.5q118 0 183 75.5t65 215.5
v852q0 14 8.5 22.5t21.5 8.5h232q13 0 21.5 -8.5t8.5 -22.5v-858q0 -275 -148 -423.5t-392 -148.5z" />
    <glyph glyph-name="Ucircumflex" unicode="&#xdb;" horiz-adv-x="1345" 
d="M375 1587q-18 0 -22 12.5t7 24.5l187 223q14 17 35 17h180q21 0 35 -17l186 -223q13 -12 9 -24.5t-23 -12.5h-148q-23 0 -37 17l-112 135l-111 -135q-14 -17 -37 -17h-149zM674 -27q-245 0 -394 148.5t-149 423.5v858q0 13 8.5 22t22.5 9h231q13 0 22 -9t9 -22v-852
q0 -140 65.5 -215.5t184.5 -75.5q118 0 183 75.5t65 215.5v852q0 14 8.5 22.5t21.5 8.5h232q13 0 21.5 -8.5t8.5 -22.5v-858q0 -275 -148 -423.5t-392 -148.5z" />
    <glyph glyph-name="Udieresis" unicode="&#xdc;" horiz-adv-x="1345" 
d="M449 1589q-58 0 -100 41.5t-42 102.5q0 59 42 100t100 41q59 0 100 -40.5t41 -100.5q0 -61 -41 -102.5t-100 -41.5zM899 1589q-59 0 -100 41.5t-41 102.5q0 60 41 100.5t100 40.5t100 -40.5t41 -100.5q0 -61 -41 -102.5t-100 -41.5zM674 -27q-245 0 -394 148.5
t-149 423.5v858q0 13 8.5 22t22.5 9h231q13 0 22 -9t9 -22v-852q0 -140 65.5 -215.5t184.5 -75.5q118 0 183 75.5t65 215.5v852q0 14 8.5 22.5t21.5 8.5h232q13 0 21.5 -8.5t8.5 -22.5v-858q0 -275 -148 -423.5t-392 -148.5z" />
    <glyph glyph-name="Yacute" unicode="&#xdd;" horiz-adv-x="1284" 
d="M551 1571q-18 0 -25.5 9t0.5 26l121 233q14 25 35 25h199q18 0 25 -9t-1 -26l-123 -234q-13 -24 -34 -24h-197zM1188 1434q39 0 20 -37l-420 -735v-631q0 -14 -8.5 -22.5t-21.5 -8.5h-232q-13 0 -21.5 8.5t-8.5 22.5v633l-420 733q-19 37 20 37h242q25 0 37 -21l268 -481
l266 481q12 21 37 21h242z" />
    <glyph glyph-name="Thorn" unicode="&#xde;" horiz-adv-x="1210" 
d="M606 1188q252 0 388 -123.5t136 -347.5t-136 -347.5t-388 -123.5h-172v-215q0 -13 -9 -22t-22 -9h-231q-14 0 -22.5 9t-8.5 22v1372q0 13 8.5 22t22.5 9h231q13 0 22 -9t9 -22v-215h172zM584 506q131 0 198.5 46t67.5 165t-67.5 165t-198.5 46h-150v-422h150z" />
    <glyph glyph-name="germandbls" unicode="&#xdf;" horiz-adv-x="1263" 
d="M877 752q140 -16 228.5 -105t88.5 -256q0 -391 -524 -391h-111q-13 0 -22 9t-9 22v159q0 14 9 22.5t22 8.5h94q140 0 204.5 46t64.5 153q0 109 -62.5 149.5t-206.5 40.5h-94q-13 0 -22 9t-9 22v160q0 13 8.5 21.5t22.5 8.5h62q119 0 172 44t53 133q0 92 -55 138t-158 46
q-207 0 -207 -182v-979q0 -13 -9 -22t-22 -9h-223q-14 0 -22.5 9t-8.5 22v993q0 107 40 190.5t109 134t156.5 76t188.5 25.5q134 0 242 -42.5t175.5 -131.5t67.5 -213q0 -140 -73 -220.5t-170 -90.5z" />
    <glyph glyph-name="agrave" unicode="&#xe0;" horiz-adv-x="1263" 
d="M485 1165l-123 234q-8 17 -0.5 26t25.5 9h199q21 0 35 -25l120 -233q8 -17 1 -26t-25 -9h-197q-22 0 -35 24zM1110 1004q14 0 22.5 -9t8.5 -22v-942q0 -13 -9.5 -22t-23.5 -9h-199q-13 0 -21.5 8.5t-8.5 22.5l-5 110q-114 -166 -327 -166q-210 0 -343.5 150t-133.5 377
q0 225 133.5 375.5t343.5 150.5q216 0 327 -166l5 111q0 14 8.5 22.5t21.5 8.5h201zM606 233q113 0 183.5 74t70.5 195t-70.5 194.5t-183.5 73.5t-186.5 -74.5t-73.5 -193.5q0 -120 73 -194.5t187 -74.5z" />
    <glyph glyph-name="aacute" unicode="&#xe1;" horiz-adv-x="1263" 
d="M532 1141q-18 0 -25 9t1 26l121 233q14 25 35 25h198q18 0 25.5 -9t-0.5 -26l-123 -234q-13 -24 -35 -24h-197zM1110 1004q14 0 22.5 -9t8.5 -22v-942q0 -13 -9.5 -22t-23.5 -9h-199q-13 0 -21.5 8.5t-8.5 22.5l-5 110q-114 -166 -327 -166q-210 0 -343.5 150t-133.5 377
q0 225 133.5 375.5t343.5 150.5q216 0 327 -166l5 111q0 14 8.5 22.5t21.5 8.5h201zM606 233q113 0 183.5 74t70.5 195t-70.5 194.5t-183.5 73.5t-186.5 -74.5t-73.5 -193.5q0 -120 73 -194.5t187 -74.5z" />
    <glyph glyph-name="acircumflex" unicode="&#xe2;" horiz-adv-x="1263" 
d="M328 1157q-18 0 -22 12.5t7 24.5l187 223q14 17 35 17h180q21 0 35 -17l186 -223q13 -12 9 -24.5t-23 -12.5h-148q-23 0 -37 17l-112 135l-111 -135q-14 -17 -37 -17h-149zM1110 1004q14 0 22.5 -9t8.5 -22v-942q0 -13 -9.5 -22t-23.5 -9h-199q-13 0 -21.5 8.5t-8.5 22.5
l-5 110q-114 -166 -327 -166q-210 0 -343.5 150t-133.5 377q0 225 133.5 375.5t343.5 150.5q216 0 327 -166l5 111q0 14 8.5 22.5t21.5 8.5h201zM606 233q113 0 183.5 74t70.5 195t-70.5 194.5t-183.5 73.5t-186.5 -74.5t-73.5 -193.5q0 -120 73 -194.5t187 -74.5z" />
    <glyph glyph-name="atilde" unicode="&#xe3;" horiz-adv-x="1263" 
d="M266 1245q-20 0 -20 27q7 102 66.5 154.5t152.5 52.5q45 0 86.5 -15t71.5 -36t58 -42t59 -36t61 -15q34 0 59 17t35 41q6 16 23 16h63q20 0 20 -20q-6 -105 -66 -160t-153 -55q-45 0 -86 15t-71.5 36t-58.5 42.5t-59 36.5t-61 15q-35 0 -59.5 -16.5t-34.5 -40.5
q-7 -17 -22 -17h-64zM1110 1004q14 0 22.5 -9t8.5 -22v-942q0 -13 -9.5 -22t-23.5 -9h-199q-13 0 -21.5 8.5t-8.5 22.5l-5 110q-114 -166 -327 -166q-210 0 -343.5 150t-133.5 377q0 225 133.5 375.5t343.5 150.5q216 0 327 -166l5 111q0 14 8.5 22.5t21.5 8.5h201zM606 233
q113 0 183.5 74t70.5 195t-70.5 194.5t-183.5 73.5t-186.5 -74.5t-73.5 -193.5q0 -120 73 -194.5t187 -74.5z" />
    <glyph glyph-name="adieresis" unicode="&#xe4;" horiz-adv-x="1263" 
d="M399 1159q-58 0 -99.5 41.5t-41.5 102.5q0 59 41.5 100t99.5 41q59 0 100.5 -40.5t41.5 -100.5q0 -61 -41.5 -102.5t-100.5 -41.5zM850 1159q-59 0 -100 41.5t-41 102.5q0 60 41 100.5t100 40.5t100 -40.5t41 -100.5q0 -61 -41 -102.5t-100 -41.5zM1110 1004
q14 0 22.5 -9t8.5 -22v-942q0 -13 -9.5 -22t-23.5 -9h-199q-13 0 -21.5 8.5t-8.5 22.5l-5 110q-114 -166 -327 -166q-210 0 -343.5 150t-133.5 377q0 225 133.5 375.5t343.5 150.5q216 0 327 -166l5 111q0 14 8.5 22.5t21.5 8.5h201zM606 233q113 0 183.5 74t70.5 195
t-70.5 194.5t-183.5 73.5t-186.5 -74.5t-73.5 -193.5q0 -120 73 -194.5t187 -74.5z" />
    <glyph glyph-name="aring" unicode="&#xe5;" horiz-adv-x="1263" 
d="M625 1104q-94 0 -152.5 58.5t-58.5 146.5q0 87 59 148t152 61t152 -61t59 -148q0 -88 -58.5 -146.5t-152.5 -58.5zM625 1360q-21 0 -35.5 -14t-14.5 -35t14.5 -35t35.5 -14t35 14t14 35t-14 35t-35 14zM1110 1004q14 0 22.5 -9t8.5 -22v-942q0 -13 -9.5 -22t-23.5 -9
h-199q-13 0 -21.5 8.5t-8.5 22.5l-5 110q-114 -166 -327 -166q-210 0 -343.5 150t-133.5 377q0 225 133.5 375.5t343.5 150.5q216 0 327 -166l5 111q0 14 8.5 22.5t21.5 8.5h201zM606 233q113 0 183.5 74t70.5 195t-70.5 194.5t-183.5 73.5t-186.5 -74.5t-73.5 -193.5
q0 -120 73 -194.5t187 -74.5z" />
    <glyph glyph-name="ae" unicode="&#xe6;" horiz-adv-x="1929" 
d="M1860 549q0 -78 -24 -116t-87 -38h-608q48 -196 295 -196q127 0 233 61q21 12 35 -8l76 -105q15 -22 -11 -45q-127 -127 -356 -127q-151 0 -270 60.5t-191 167.5q-63 -107 -166 -167.5t-235 -60.5q-141 0 -251 69.5t-170 189t-60 268.5q0 225 133.5 375.5t343.5 150.5
q183 0 309 -113l2 58q0 13 9 22t22 9h153q14 0 22.5 -9t8.5 -22v-37q128 92 305 92q111 0 203.5 -39t152.5 -105.5t93 -152.5t33 -182zM1380 795q-96 0 -161 -51.5t-82 -149.5h471q-12 98 -73 149.5t-155 51.5zM606 233q111 0 182.5 74.5t71.5 194.5q0 121 -70.5 194.5
t-183.5 73.5t-186.5 -74.5t-73.5 -193.5q0 -120 73 -194.5t187 -74.5z" />
    <glyph glyph-name="ccedilla" unicode="&#xe7;" horiz-adv-x="1062" 
d="M981 199q22 -22 4 -43q-61 -78 -150 -125t-196 -54l-49 -45q74 -7 128 -52t54 -118q0 -87 -54.5 -140t-134.5 -67t-173 1q-19 3 -19 22v98q0 21 23 21q82 -9 126 5.5t44 47.5q0 29 -48 42t-120 -9q-10 -5 -17.5 -0.5t-7.5 14.5v103q0 17 10 24l70 66q-179 41 -290 183
t-111 333q0 223 149.5 372.5t374.5 149.5q122 0 222.5 -47.5t166.5 -132.5q18 -21 -4 -43l-123 -121q-12 -12 -27 -11.5t-26 11.5q-84 84 -197 84q-118 0 -191 -75t-73 -187q0 -114 74.5 -192t195.5 -78q110 0 193 83q11 11 26 11.5t27 -11.5z" />
    <glyph glyph-name="egrave" unicode="&#xe8;" horiz-adv-x="1136" 
d="M440 1165l-123 234q-8 17 -0.5 26t25.5 9h199q20 0 34 -25l121 -233q8 -17 1 -26t-25 -9h-197q-22 0 -35 24zM1067 549q0 -78 -24 -116t-87 -38h-608q48 -196 295 -196q128 0 234 61q20 11 34 -8l76 -105q16 -22 -10 -45q-127 -127 -356 -127q-122 0 -225 40.5
t-174.5 111t-111.5 168.5t-40 211q0 224 143.5 373t372.5 149q147 0 258.5 -67.5t167 -175t55.5 -236.5zM588 795q-96 0 -161.5 -52t-82.5 -149h471q-12 99 -72.5 150t-154.5 51z" />
    <glyph glyph-name="eacute" unicode="&#xe9;" horiz-adv-x="1136" 
d="M487 1141q-18 0 -25 9t1 26l121 233q14 25 34 25h199q18 0 25.5 -9t-0.5 -26l-123 -234q-13 -24 -35 -24h-197zM1067 549q0 -78 -24 -116t-87 -38h-608q48 -196 295 -196q128 0 234 61q20 11 34 -8l76 -105q16 -22 -10 -45q-127 -127 -356 -127q-122 0 -225 40.5
t-174.5 111t-111.5 168.5t-40 211q0 224 143.5 373t372.5 149q147 0 258.5 -67.5t167 -175t55.5 -236.5zM588 795q-96 0 -161.5 -52t-82.5 -149h471q-12 99 -72.5 150t-154.5 51z" />
    <glyph glyph-name="ecircumflex" unicode="&#xea;" horiz-adv-x="1136" 
d="M283 1157q-18 0 -22 12.5t7 24.5l187 223q14 17 34 17h181q21 0 35 -17l186 -223q13 -12 9 -24.5t-23 -12.5h-148q-23 0 -37 17l-112 135l-111 -135q-14 -17 -37 -17h-149zM1067 549q0 -78 -24 -116t-87 -38h-608q48 -196 295 -196q128 0 234 61q20 11 34 -8l76 -105
q16 -22 -10 -45q-127 -127 -356 -127q-122 0 -225 40.5t-174.5 111t-111.5 168.5t-40 211q0 224 143.5 373t372.5 149q147 0 258.5 -67.5t167 -175t55.5 -236.5zM588 795q-96 0 -161.5 -52t-82.5 -149h471q-12 99 -72.5 150t-154.5 51z" />
    <glyph glyph-name="edieresis" unicode="&#xeb;" horiz-adv-x="1136" 
d="M354 1159q-58 0 -99.5 41.5t-41.5 102.5q0 59 41.5 100t99.5 41q59 0 100.5 -40.5t41.5 -100.5q0 -61 -41.5 -102.5t-100.5 -41.5zM805 1159q-59 0 -100 41.5t-41 102.5q0 60 41 100.5t100 40.5t100 -40.5t41 -100.5q0 -61 -41 -102.5t-100 -41.5zM1067 549
q0 -78 -24 -116t-87 -38h-608q48 -196 295 -196q128 0 234 61q20 11 34 -8l76 -105q16 -22 -10 -45q-127 -127 -356 -127q-122 0 -225 40.5t-174.5 111t-111.5 168.5t-40 211q0 224 143.5 373t372.5 149q147 0 258.5 -67.5t167 -175t55.5 -236.5zM588 795q-96 0 -161.5 -52
t-82.5 -149h471q-12 99 -72.5 150t-154.5 51z" />
    <glyph glyph-name="igrave" unicode="&#xec;" horiz-adv-x="509" 
d="M20 1434h199q21 0 35 -25l121 -233q8 -17 0.5 -26t-25.5 -9h-196q-22 0 -35 24l-123 234q-8 17 -1 26t25 9zM143 0q-13 0 -21.5 8.5t-8.5 22.5v942q0 14 8.5 22.5t21.5 8.5h224q13 0 21.5 -8.5t8.5 -22.5v-942q0 -14 -8.5 -22.5t-21.5 -8.5h-224z" />
    <glyph glyph-name="iacute" unicode="&#xed;" horiz-adv-x="509" 
d="M496 1434q18 0 25 -9t-1 -26l-123 -234q-13 -24 -35 -24h-196q-18 0 -25.5 9t0.5 26l121 233q14 25 35 25h199zM143 0q-13 0 -21.5 8.5t-8.5 22.5v942q0 14 8.5 22.5t21.5 8.5h224q13 0 21.5 -8.5t8.5 -22.5v-942q0 -14 -8.5 -22.5t-21.5 -8.5h-224z" />
    <glyph glyph-name="icircumflex" unicode="&#xee;" horiz-adv-x="509" 
d="M-41 1157q-18 0 -21.5 12.5t7.5 24.5l186 223q14 17 35 17h180q21 0 35 -17l186 -223q13 -12 9 -24.5t-23 -12.5h-147q-23 0 -37 17l-113 135l-111 -135q-14 -17 -36 -17h-150zM143 0q-13 0 -21.5 8.5t-8.5 22.5v942q0 14 8.5 22.5t21.5 8.5h224q13 0 21.5 -8.5
t8.5 -22.5v-942q0 -14 -8.5 -22.5t-21.5 -8.5h-224z" />
    <glyph glyph-name="idieresis" unicode="&#xef;" horiz-adv-x="509" 
d="M31 1159q-58 0 -100 41.5t-42 102.5q0 59 42 100t100 41q59 0 100 -40.5t41 -100.5q0 -61 -41 -102.5t-100 -41.5zM481 1159q-59 0 -100 41.5t-41 102.5q0 60 41 100.5t100 40.5t100.5 -40.5t41.5 -100.5q0 -61 -41.5 -102.5t-100.5 -41.5zM143 0q-13 0 -21.5 8.5
t-8.5 22.5v942q0 14 8.5 22.5t21.5 8.5h224q13 0 21.5 -8.5t8.5 -22.5v-942q0 -14 -8.5 -22.5t-21.5 -8.5h-224z" />
    <glyph glyph-name="eth" unicode="&#xf0;" horiz-adv-x="1216" 
d="M1184 1335q33 3 33 -28v-117q0 -30 -29 -33l-47 -6v-1120q0 -13 -9.5 -22t-23.5 -9h-199q-13 0 -21.5 8.5t-8.5 22.5l-5 110q-114 -166 -327 -166q-210 0 -343.5 150t-133.5 377q0 225 133.5 375.5t343.5 150.5q200 0 309 -141v229l-123 -14q-33 -3 -33 28v117
q0 30 29 33l127 16v138q0 13 8.5 21.5t22.5 8.5h223q14 0 22.5 -8.5t8.5 -21.5v-105zM606 233q113 0 183.5 74t70.5 195t-70.5 194.5t-183.5 73.5t-186.5 -74.5t-73.5 -193.5q0 -120 73 -194.5t187 -74.5z" />
    <glyph glyph-name="ntilde" unicode="&#xf1;" 
d="M244 1245q-9 0 -15 7.5t-6 19.5q7 102 66.5 154.5t152.5 52.5q45 0 86.5 -15t71.5 -36t58 -42t59 -36t61 -15q34 0 59 17t35 41q6 16 23 16h63q21 0 21 -20q-6 -105 -66 -160t-153 -55q-45 0 -86 15t-71.5 36t-58.5 42.5t-59 36.5t-61 15q-35 0 -59.5 -16.5t-34.5 -40.5
q-7 -17 -23 -17h-63zM707 1028q162 0 262 -110.5t100 -303.5v-583q0 -13 -9.5 -22t-23.5 -9h-219q-13 0 -22 9t-9 22v520q0 106 -47.5 161.5t-138.5 55.5t-144 -56.5t-53 -160.5v-520q0 -14 -8.5 -22.5t-21.5 -8.5h-221q-14 0 -22.5 9t-8.5 22v942q0 13 8.5 22t22.5 9h213
q30 0 30 -33l8 -119q98 176 304 176z" />
    <glyph glyph-name="ograve" unicode="&#xf2;" 
d="M358 1434h199q21 0 35 -25l121 -233q8 -17 0.5 -26t-25.5 -9h-196q-22 0 -35 24l-123 234q-8 17 -1 26t25 9zM596 -25q-226 0 -376 151.5t-150 375.5t150 375t376 151q111 0 208.5 -40.5t166.5 -110.5t109 -167.5t40 -207.5q0 -147 -67.5 -267.5t-188 -190t-268.5 -69.5z
M596 236q108 0 180 73t72 193t-72 193t-180 73q-110 0 -182 -72.5t-72 -193.5t72 -193.5t182 -72.5z" />
    <glyph glyph-name="oacute" unicode="&#xf3;" 
d="M834 1434q18 0 25 -9t-1 -26l-123 -234q-13 -24 -35 -24h-196q-18 0 -25.5 9t0.5 26l121 233q14 25 35 25h199zM596 -25q-226 0 -376 151.5t-150 375.5t150 375t376 151q111 0 208.5 -40.5t166.5 -110.5t109 -167.5t40 -207.5q0 -147 -67.5 -267.5t-188 -190
t-268.5 -69.5zM596 236q108 0 180 73t72 193t-72 193t-180 73q-110 0 -182 -72.5t-72 -193.5t72 -193.5t182 -72.5z" />
    <glyph glyph-name="ocircumflex" unicode="&#xf4;" 
d="M297 1157q-18 0 -21.5 12.5t7.5 24.5l186 223q14 17 35 17h180q21 0 35 -17l186 -223q13 -12 9 -24.5t-23 -12.5h-148q-22 0 -36 17l-113 135l-111 -135q-14 -17 -37 -17h-149zM596 -25q-226 0 -376 151.5t-150 375.5t150 375t376 151q111 0 208.5 -40.5t166.5 -110.5
t109 -167.5t40 -207.5q0 -147 -67.5 -267.5t-188 -190t-268.5 -69.5zM596 236q108 0 180 73t72 193t-72 193t-180 73q-110 0 -182 -72.5t-72 -193.5t72 -193.5t182 -72.5z" />
    <glyph glyph-name="otilde" unicode="&#xf5;" 
d="M436 1479q45 0 86.5 -15t71.5 -36t58 -42t59 -36t61 -15q34 0 59 17t35 41q6 16 23 16h63q21 0 21 -20q-6 -105 -66 -160t-153 -55q-45 0 -86 15t-71.5 36t-58.5 42.5t-59 36.5t-61 15q-35 0 -59.5 -16.5t-34.5 -40.5q-7 -17 -23 -17h-63q-9 0 -15 7.5t-6 19.5
q7 102 66.5 154.5t152.5 52.5zM596 -25q-226 0 -376 151.5t-150 375.5t150 375t376 151q111 0 208.5 -40.5t166.5 -110.5t109 -167.5t40 -207.5q0 -147 -67.5 -267.5t-188 -190t-268.5 -69.5zM596 236q108 0 180 73t72 193t-72 193t-180 73q-110 0 -182 -72.5t-72 -193.5
t72 -193.5t182 -72.5z" />
    <glyph glyph-name="odieresis" unicode="&#xf6;" 
d="M369 1159q-58 0 -100 41.5t-42 102.5q0 59 42 100t100 41q59 0 100 -40.5t41 -100.5q0 -61 -41 -102.5t-100 -41.5zM819 1159q-59 0 -100 41.5t-41 102.5q0 60 41 100.5t100 40.5t100.5 -40.5t41.5 -100.5q0 -61 -41.5 -102.5t-100.5 -41.5zM596 -25q-226 0 -376 151.5
t-150 375.5t150 375t376 151q111 0 208.5 -40.5t166.5 -110.5t109 -167.5t40 -207.5q0 -147 -67.5 -267.5t-188 -190t-268.5 -69.5zM596 236q108 0 180 73t72 193t-72 193t-180 73q-110 0 -182 -72.5t-72 -193.5t72 -193.5t182 -72.5z" />
    <glyph glyph-name="divide" unicode="&#xf7;" horiz-adv-x="1032" 
d="M516 807q-57 0 -96 39t-39 96q0 56 39 95.5t96 39.5q55 0 94 -39.5t39 -95.5q0 -57 -38.5 -96t-94.5 -39zM164 479q-14 0 -22.5 8.5t-8.5 22.5v147q0 13 8.5 22t22.5 9h704q14 0 22.5 -9t8.5 -22v-147q0 -14 -8.5 -22.5t-22.5 -8.5h-704zM516 113q-57 0 -96 38.5
t-39 94.5t39 95.5t96 39.5q55 0 94 -39.5t39 -95.5t-38.5 -94.5t-94.5 -38.5z" />
    <glyph glyph-name="oslash" unicode="&#xf8;" 
d="M874 952q114 -68 180 -187t66 -263q0 -147 -67.5 -267.5t-188 -190t-268.5 -69.5q-78 0 -152 21l-51 -117q-10 -22 -35 -22h-88q-15 0 -21 10t1 27l69 155q-117 68 -183 187t-66 266q0 224 150 375t376 151q74 0 152 -20l51 112q10 23 35 23h88q15 0 21 -10t-1 -27z
M342 502q0 -135 88 -207l209 469q-28 4 -43 4q-110 0 -182 -72.5t-72 -193.5zM596 236q108 0 180 73t72 193q0 131 -84 205l-209 -469q6 0 20 -1t21 -1z" />
    <glyph glyph-name="ugrave" unicode="&#xf9;" 
d="M461 1165l-123 234q-8 17 -1 26t25 9h199q21 0 35 -25l121 -233q8 -17 0.5 -26t-25.5 -9h-196q-22 0 -35 24zM1038 1004q14 0 22.5 -9t8.5 -22v-942q0 -13 -8.5 -22t-22.5 -9h-213q-30 0 -30 33l-9 119q-99 -177 -303 -177q-160 0 -260 110.5t-100 303.5v584q0 13 8.5 22
t22.5 9h219q14 0 23.5 -9t9.5 -22v-520q0 -106 47 -161.5t137 -55.5q91 0 143.5 56.5t52.5 160.5v520q0 13 9 22t22 9h221z" />
    <glyph glyph-name="uacute" unicode="&#xfa;" 
d="M508 1141q-18 0 -25.5 9t0.5 26l121 233q14 25 35 25h199q18 0 25 -9t-1 -26l-123 -234q-13 -24 -34 -24h-197zM1038 1004q14 0 22.5 -9t8.5 -22v-942q0 -13 -8.5 -22t-22.5 -9h-213q-30 0 -30 33l-9 119q-99 -177 -303 -177q-160 0 -260 110.5t-100 303.5v584
q0 13 8.5 22t22.5 9h219q14 0 23.5 -9t9.5 -22v-520q0 -106 47 -161.5t137 -55.5q91 0 143.5 56.5t52.5 160.5v520q0 13 9 22t22 9h221z" />
    <glyph glyph-name="ucircumflex" unicode="&#xfb;" 
d="M301 1157q-18 0 -21.5 12.5t7.5 24.5l186 223q14 17 35 17h180q21 0 35 -17l186 -223q13 -12 9 -24.5t-23 -12.5h-147q-23 0 -37 17l-113 135l-111 -135q-14 -17 -36 -17h-150zM1038 1004q14 0 22.5 -9t8.5 -22v-942q0 -13 -8.5 -22t-22.5 -9h-213q-30 0 -30 33l-9 119
q-99 -177 -303 -177q-160 0 -260 110.5t-100 303.5v584q0 13 8.5 22t22.5 9h219q14 0 23.5 -9t9.5 -22v-520q0 -106 47 -161.5t137 -55.5q91 0 143.5 56.5t52.5 160.5v520q0 13 9 22t22 9h221z" />
    <glyph glyph-name="udieresis" unicode="&#xfc;" 
d="M373 1159q-58 0 -100 41.5t-42 102.5q0 59 42 100t100 41q59 0 100 -40.5t41 -100.5q0 -61 -41 -102.5t-100 -41.5zM823 1159q-59 0 -100 41.5t-41 102.5q0 60 41 100.5t100 40.5t100.5 -40.5t41.5 -100.5q0 -61 -41.5 -102.5t-100.5 -41.5zM1038 1004q14 0 22.5 -9
t8.5 -22v-942q0 -13 -8.5 -22t-22.5 -9h-213q-30 0 -30 33l-9 119q-99 -177 -303 -177q-160 0 -260 110.5t-100 303.5v584q0 13 8.5 22t22.5 9h219q14 0 23.5 -9t9.5 -22v-520q0 -106 47 -161.5t137 -55.5q91 0 143.5 56.5t52.5 160.5v520q0 13 9 22t22 9h221z" />
    <glyph glyph-name="yacute" unicode="&#xfd;" horiz-adv-x="1173" 
d="M823 1434q18 0 25.5 -9t-0.5 -26l-123 -234q-13 -24 -35 -24h-196q-18 0 -25.5 9t0.5 26l121 233q14 25 35 25h198zM328 -389q-18 0 -25 9t0 26l146 352l-388 971q-12 35 25 35h225q28 0 37 -25l240 -651l237 651q9 25 37 25h225q37 0 25 -35l-530 -1334q-9 -24 -37 -24
h-217z" />
    <glyph glyph-name="thorn" unicode="&#xfe;" horiz-adv-x="1263" 
d="M717 1028q138 0 247 -69.5t168.5 -189t59.5 -267.5t-59.5 -268.5t-168.5 -189.5t-247 -69q-202 0 -311 144v-477q0 -14 -9 -22.5t-22 -8.5h-223q-14 0 -22.5 8.5t-8.5 22.5v1792q0 13 8.5 21.5t22.5 8.5h223q14 0 22.5 -8.5t8.5 -21.5v-549q108 143 311 143zM657 233
q112 0 185 74.5t73 194.5q0 119 -73 193.5t-185 74.5q-114 0 -185 -73.5t-71 -194.5t71 -195t185 -74z" />
    <glyph glyph-name="ydieresis" unicode="&#xff;" horiz-adv-x="1173" 
d="M358 1159q-58 0 -99.5 41.5t-41.5 102.5q0 59 41.5 100t99.5 41q59 0 100.5 -40.5t41.5 -100.5q0 -61 -41.5 -102.5t-100.5 -41.5zM809 1159q-59 0 -100 41.5t-41 102.5q0 60 41 100.5t100 40.5t100 -40.5t41 -100.5q0 -61 -41 -102.5t-100 -41.5zM328 -389q-18 0 -25 9
t0 26l146 352l-388 971q-12 35 25 35h225q28 0 37 -25l240 -651l237 651q9 25 37 25h225q37 0 25 -35l-530 -1334q-9 -24 -37 -24h-217z" />
    <glyph glyph-name="dotlessi" unicode="&#x131;" horiz-adv-x="509" 
d="M143 0q-13 0 -21.5 8.5t-8.5 22.5v942q0 14 8.5 22.5t21.5 8.5h224q13 0 21.5 -8.5t8.5 -22.5v-942q0 -14 -8.5 -22.5t-21.5 -8.5h-224z" />
    <glyph glyph-name="OE" unicode="&#x152;" horiz-adv-x="2193" 
d="M2040 1174h-467v-318h440q13 0 22 -9t9 -22v-198q0 -13 -9 -22t-22 -9h-440v-336h467q14 0 22.5 -9t8.5 -22v-198q0 -13 -8.5 -22t-22.5 -9h-729q-13 0 -22 9t-9 22v88q-195 -146 -442 -146q-201 0 -370.5 97.5t-268.5 267.5t-99 373q0 204 99 374.5t268.5 267.5
t370.5 97q248 0 442 -145v98q0 13 9 22t22 9h729q14 0 22.5 -9t8.5 -22v-199q0 -13 -8.5 -21.5t-22.5 -8.5zM838 260q189 0 314.5 129.5t125.5 321.5q0 194 -125.5 323t-314.5 129q-188 0 -314.5 -129.5t-126.5 -322.5q0 -192 126.5 -321.5t314.5 -129.5z" />
    <glyph glyph-name="oe" unicode="&#x153;" horiz-adv-x="1918" 
d="M1847 549q0 -79 -23.5 -116.5t-84.5 -37.5h-609q48 -196 295 -196q126 0 232 61q21 12 35 -8l75 -105q16 -22 -10 -45q-127 -127 -356 -127q-128 0 -234 44t-180 124q-72 -80 -172.5 -124t-218.5 -44q-226 0 -376 151.5t-150 375.5t150 375t376 151q115 0 215 -43
t170 -121q148 164 385 164q147 0 258.5 -67.5t167 -175t55.5 -236.5zM1368 795q-95 0 -160 -52t-82 -149h471q-12 99 -73 150t-156 51zM596 236q108 0 180 73t72 193t-72 193t-180 73q-110 0 -182 -72.5t-72 -193.5t72 -193.5t182 -72.5z" />
    <glyph glyph-name="circumflex" unicode="&#x2c6;" horiz-adv-x="702" 
d="M53 1157q-18 0 -21.5 12.5t7.5 24.5l186 223q14 17 35 17h180q21 0 35 -17l187 -223q13 -12 9 -24.5t-24 -12.5h-147q-23 0 -37 17l-113 135l-110 -135q-14 -17 -37 -17h-150z" />
    <glyph glyph-name="ring" unicode="&#x2da;" horiz-adv-x="483" 
d="M242 1518q93 0 152 -61t59 -148q0 -88 -58.5 -146.5t-152.5 -58.5t-152.5 58.5t-58.5 146.5q0 87 59 148t152 61zM242 1262q21 0 35 14t14 35t-14 35t-35 14t-35 -14t-14 -35t14 -35t35 -14z" />
    <glyph glyph-name="tilde" unicode="&#x2dc;" horiz-adv-x="817" 
d="M250 1479q45 0 86.5 -15t71.5 -36t58 -42t59 -36t61 -15q34 0 59 17t35 41q6 16 22 16h64q20 0 20 -20q-6 -105 -66 -160t-153 -55q-45 0 -86 15t-71.5 36t-58.5 42.5t-59 36.5t-61 15q-35 0 -59.5 -16.5t-34.5 -40.5q-7 -17 -22 -17h-64q-20 0 -20 27q7 102 66.5 154.5
t152.5 52.5z" />
    <glyph glyph-name="endash" unicode="&#x2013;" horiz-adv-x="1249" 
d="M1116 682q14 0 22.5 -9t8.5 -22v-168q0 -13 -8.5 -21.5t-22.5 -8.5h-983q-14 0 -22.5 8.5t-8.5 21.5v168q0 13 9 22t22 9h983z" />
    <glyph glyph-name="emdash" unicode="&#x2014;" horiz-adv-x="1372" 
d="M1239 682q13 0 22 -9t9 -22v-168q0 -13 -8.5 -21.5t-22.5 -8.5h-1106q-14 0 -22.5 8.5t-8.5 21.5v168q0 13 9 22t22 9h1106z" />
    <glyph glyph-name="quoteleft" unicode="&#x2018;" horiz-adv-x="485" 
d="M420 1464v-65q-87 1 -150 -70q-42 -47 -38 -83q2 -21 24 -21q69 0 118.5 -50t49.5 -120q0 -69 -50 -118.5t-122 -49.5q-79 0 -135 59t-56 170q0 83 35 152.5t88.5 112t115.5 64.5t120 19z" />
    <glyph glyph-name="quoteright" unicode="&#x2019;" horiz-adv-x="485" 
d="M66 893v65q87 -1 149 70q42 47 39 83q-3 22 -25 22q-69 0 -118.5 50t-49.5 120q0 69 50 118t122 49q78 0 134.5 -59t56.5 -170q0 -83 -34.5 -152.5t-88.5 -112t-115.5 -64.5t-119.5 -19z" />
    <glyph glyph-name="quotesinglbase" unicode="&#x201a;" horiz-adv-x="526" 
d="M86 -264v65q87 -1 150 70q42 47 38 83q-2 21 -24 21q-69 0 -118.5 50t-49.5 120q0 69 50 118.5t122 49.5q78 0 134 -59t56 -170q0 -83 -34.5 -153t-88.5 -112t-115.5 -64t-119.5 -19z" />
    <glyph glyph-name="quotedblleft" unicode="&#x201c;" horiz-adv-x="921" 
d="M420 1464v-65q-87 1 -150 -70q-42 -47 -38 -83q2 -21 24 -21q69 0 118.5 -50t49.5 -120q0 -69 -50 -118.5t-122 -49.5q-78 0 -134.5 59t-56.5 170q0 83 35 152.5t88.5 112t115.5 64.5t120 19zM856 1464v-65q-87 1 -150 -70q-42 -47 -38 -83q2 -21 24 -21q68 0 118 -50
t50 -120q0 -69 -50 -118.5t-122 -49.5q-79 0 -134.5 59t-55.5 170q0 83 34.5 152.5t88.5 112t115.5 64.5t119.5 19z" />
    <glyph glyph-name="quotedblright" unicode="&#x201d;" horiz-adv-x="921" 
d="M66 893v65q87 -1 149 70q42 47 39 83q-3 22 -25 22q-69 0 -118.5 50t-49.5 120q0 69 50 118t122 49q78 0 134.5 -59t56.5 -170q0 -83 -34.5 -152.5t-88.5 -112t-115.5 -64.5t-119.5 -19zM502 893v65q87 -1 150 70q42 47 38 83q-2 22 -24 22q-69 0 -119.5 50t-50.5 120
q0 69 51 118t123 49q78 0 134 -59t56 -170q0 -83 -34.5 -152.5t-88.5 -112t-115.5 -64.5t-119.5 -19z" />
    <glyph glyph-name="quotedblbase" unicode="&#x201e;" horiz-adv-x="962" 
d="M86 -264v65q87 -1 150 70q42 47 38 83q-2 21 -24 21q-69 0 -118.5 50t-49.5 120q0 69 50 118.5t122 49.5q78 0 134 -59t56 -170q0 -83 -34.5 -153t-88.5 -112t-115.5 -64t-119.5 -19zM522 -264v65q87 -1 150 70q42 47 38 83q-2 21 -24 21q-69 0 -119.5 50t-50.5 120
q0 69 51 118.5t123 49.5q78 0 134.5 -59t56.5 -170q0 -83 -35 -153t-88.5 -112t-115.5 -64t-120 -19z" />
    <glyph glyph-name="dagger" unicode="&#x2020;" horiz-adv-x="991" 
d="M827 1176q13 0 22 -9t9 -22v-148q0 -13 -8.5 -21.5t-22.5 -8.5h-227v-228q0 -13 -8.5 -21.5t-22.5 -8.5h-147q-14 0 -22.5 8.5t-8.5 21.5v228h-227q-14 0 -22.5 8.5t-8.5 21.5v148q0 13 8.5 22t22.5 9h227v227q0 13 8.5 22t22.5 9h147q13 0 22 -9t9 -22v-227h227z" />
    <glyph glyph-name="daggerdbl" unicode="&#x2021;" horiz-adv-x="991" 
d="M827 1176q13 0 22 -9t9 -22v-148q0 -13 -8.5 -21.5t-22.5 -8.5h-227v-228q0 -13 -8.5 -21.5t-22.5 -8.5h-147q-14 0 -22.5 8.5t-8.5 21.5v228h-227q-14 0 -22.5 8.5t-8.5 21.5v148q0 13 8.5 22t22.5 9h227v227q0 13 8.5 22t22.5 9h147q13 0 22 -9t9 -22v-227h227z
M827 334q13 0 22 -9t9 -22v-147q0 -14 -9 -22.5t-22 -8.5h-227v-227q0 -14 -9 -22.5t-22 -8.5h-147q-14 0 -22.5 8.5t-8.5 22.5v227h-227q-14 0 -22.5 8.5t-8.5 22.5v147q0 13 8.5 22t22.5 9h227v227q0 13 8.5 22t22.5 9h147q13 0 22 -9t9 -22v-227h227z" />
    <glyph glyph-name="bullet" unicode="&#x2022;" horiz-adv-x="681" 
d="M342 354q-86 0 -147.5 61.5t-61.5 147.5t61.5 147.5t147.5 61.5q85 0 146 -61.5t61 -147.5t-61 -147.5t-146 -61.5z" />
    <glyph glyph-name="ellipsis" unicode="&#x2026;" horiz-adv-x="1435" 
d="M250 -27q-70 0 -119 49.5t-49 118.5q0 71 49 121.5t119 50.5t120 -50.5t50 -121.5q0 -69 -50 -118.5t-120 -49.5zM719 -27q-70 0 -120 49.5t-50 118.5q0 71 50 121.5t120 50.5q69 0 118.5 -50.5t49.5 -121.5q0 -69 -49.5 -118.5t-118.5 -49.5zM1186 -27q-70 0 -119 49.5
t-49 118.5q0 71 49 121.5t119 50.5t119 -50.5t49 -121.5q0 -69 -49 -118.5t-119 -49.5z" />
    <glyph glyph-name="perthousand" unicode="&#x2030;" horiz-adv-x="2152" 
d="M383 887q-119 0 -200 80t-81 198t81 198.5t200 80.5t200 -80.5t81 -198.5t-81 -198t-200 -80zM356 16l-106 72q-26 17 -10 43l854 1278q16 26 41 8l106 -71q26 -17 10 -43l-854 -1278q-17 -27 -41 -9zM383 1069q40 0 67 27.5t27 68.5t-27 69t-67 28t-67 -28t-27 -69
t27 -68.5t67 -27.5zM1108 -10q-119 0 -200 80t-81 198t81 198.5t200 80.5t200 -80.5t81 -198.5t-81 -198t-200 -80zM1769 -10q-120 0 -200 79.5t-80 198.5t80 199t200 80q119 0 200 -80.5t81 -198.5t-81 -198t-200 -80zM1108 172q40 0 67 27.5t27 68.5t-27 69t-67 28
t-67 -28t-27 -69t27 -68.5t67 -27.5zM1769 172q40 0 67.5 27.5t27.5 68.5t-27.5 69t-67.5 28q-41 0 -68.5 -28t-27.5 -69t27.5 -68.5t68.5 -27.5z" />
    <glyph glyph-name="guilsinglleft" unicode="&#x2039;" horiz-adv-x="503" 
d="M412 262q0 -19 -12.5 -21.5t-24.5 7.5l-266 190q-17 14 -17 35v172q0 21 17 35l266 190q12 10 24.5 7t12.5 -21v-149q0 -26 -17 -37l-172 -111l172 -113q17 -11 17 -36v-148z" />
    <glyph glyph-name="guilsinglright" unicode="&#x203a;" horiz-adv-x="503" 
d="M92 262v148q0 25 17 36l172 113l-172 111q-17 11 -17 37v149q0 18 12.5 21t24.5 -7l266 -190q17 -14 17 -35v-172q0 -21 -17 -35l-266 -190q-12 -10 -24.5 -7.5t-12.5 21.5z" />
    <glyph glyph-name="fraction" unicode="&#x2044;" horiz-adv-x="311" 
d="M639 1434l-846 -1434h-121l846 1434h121z" />
    <glyph glyph-name="Euro" unicode="&#x20ac;" horiz-adv-x="1513" 
d="M1270 377l143 -154q21 -21 0 -41q-206 -209 -502 -209q-253 0 -448.5 147.5t-261.5 383.5h-88q-13 0 -22 9t-9 22v100q0 13 9 22t22 9h61q-2 14 -2 45v30h-59q-13 0 -22 8.5t-9 22.5v100q0 14 9 22.5t22 8.5h84q62 242 259.5 394.5t454.5 152.5q295 0 502 -207
q20 -20 0 -43l-143 -153q-20 -23 -43 -3q-142 119 -316 119q-137 0 -244.5 -70t-158.5 -190h289q13 0 21.5 -8.5t8.5 -22.5v-100q0 -14 -8.5 -22.5t-21.5 -8.5h-328v-30q0 -31 2 -45h326q13 0 21.5 -8.5t8.5 -22.5v-100q0 -14 -8.5 -22.5t-21.5 -8.5h-283q55 -112 160 -178
t237 -66q174 0 316 119q24 20 43 -2z" />
    <glyph glyph-name="trademark" unicode="&#x2122;" horiz-adv-x="1126" 
d="M272 1065q-10 0 -10 10v277h-119q-10 0 -10 10v61q0 11 10 11h334q10 0 10 -11v-61q0 -10 -10 -10h-119v-277q0 -10 -10 -10h-76zM563 1065q-10 0 -10 10v348q0 11 10 11h86q9 0 13 -7l110 -241l115 241q3 7 12 7h84q10 0 10 -11v-348q0 -10 -10 -10h-76q-10 0 -10 10
v197l-86 -201q-3 -6 -12 -6h-51q-10 0 -13 6l-84 201v-197q0 -10 -10 -10h-78z" />
    <glyph glyph-name="minus" unicode="&#x2212;" horiz-adv-x="1032" 
d="M164 479q-14 0 -22.5 8.5t-8.5 22.5v147q0 13 8.5 22t22.5 9h704q14 0 22.5 -9t8.5 -22v-147q0 -14 -8.5 -22.5t-22.5 -8.5h-704z" />
    <glyph glyph-name="uniFEFF" unicode="&#xfeff;" horiz-adv-x="399" 
 />
    </font>
</defs>
</svg>
