<?xml version="1.0" standalone="no"?>
<!DOCTYPE svg PUBLIC "-//W3C//DTD SVG 1.1//EN" "http://www.w3.org/Graphics/SVG/1.1/DTD/svg11.dtd" >
<svg xmlns="http://www.w3.org/2000/svg" xmlns:xlink="http://www.w3.org/1999/xlink" version="1.1">
<metadata>
Created by FontForge 20170731 at Fri Jun 24 18:09:51 2022
 By Aleksey,,,
</metadata>
<defs>
<font id="greycliff_web_regular" horiz-adv-x="1282" >
  <font-face 
    font-family="Greycliff CF"
    font-weight="400"
    font-stretch="normal"
    units-per-em="2048"
    panose-1="0 0 5 0 0 0 0 0 0 0"
    ascent="1638"
    descent="-410"
    x-height="1004"
    cap-height="1434"
    bbox="-328 -436.765 2193 1901"
    underline-thickness="102"
    underline-position="-409"
    unicode-range="U+000D-FEFF"
  />
<missing-glyph horiz-adv-x="1013" 
d="M831 1638v-2027h-643v2027h643zM676 1503h-336v-67h133v-76h-135v-66h338v66h-135v76h135v67zM541 1241h-203v-211h338v70h-135v141zM473 1171v-71h-67v71h67zM676 975h-338v-66h135v-75h-135v-68h203v143h135v66zM676 854h-68v-133h-270v-70h338v203zM676 606h-203v-112
h68v45h67v-95h-202v162h-68v-229h338v229zM676 256h-338v-229h338v229zM608 188v-94h-202v94h202zM676 -20h-338v-66h143l-143 -96v-68h338v68h-207l141 96h66v66z" />
    <glyph glyph-name=".notdef" horiz-adv-x="1013" 
d="M831 1638v-2027h-643v2027h643zM676 1503h-336v-67h133v-76h-135v-66h338v66h-135v76h135v67zM541 1241h-203v-211h338v70h-135v141zM473 1171v-71h-67v71h67zM676 975h-338v-66h135v-75h-135v-68h203v143h135v66zM676 854h-68v-133h-270v-70h338v203zM676 606h-203v-112
h68v45h67v-95h-202v162h-68v-229h338v229zM676 256h-338v-229h338v229zM608 188v-94h-202v94h202zM676 -20h-338v-66h143l-143 -96v-68h338v68h-207l141 96h66v66z" />
    <glyph glyph-name=".null" horiz-adv-x="0" 
 />
    <glyph glyph-name=".null" horiz-adv-x="0" 
 />
    <glyph glyph-name="nonmarkingreturn" unicode="&#xd;" horiz-adv-x="682" 
 />
    <glyph glyph-name="glyph3" horiz-adv-x="1013" 
d="M831 1638v-2027h-643v2027h643zM676 1503h-336v-67h133v-76h-135v-66h338v66h-135v76h135v67zM541 1241h-203v-211h338v70h-135v141zM473 1171v-71h-67v71h67zM676 975h-338v-66h135v-75h-135v-68h203v143h135v66zM676 854h-68v-133h-270v-70h338v203zM676 606h-203v-112
h68v45h67v-95h-202v162h-68v-229h338v229zM676 256h-338v-229h338v229zM608 188v-94h-202v94h202zM676 -20h-338v-66h143l-143 -96v-68h338v68h-207l141 96h66v66z" />
    <glyph glyph-name="space" unicode=" " horiz-adv-x="409" 
 />
    <glyph glyph-name="exclam" unicode="!" horiz-adv-x="458" 
d="M197 385q-27 0 -27 29l-18 991q0 29 26 29h105q24 0 24 -29l-16 -991q0 -29 -27 -29h-67zM229 -27q-43 0 -74.5 31t-31.5 76q0 43 31.5 73.5t74.5 30.5t74 -30.5t31 -73.5q0 -45 -31 -76t-74 -31z" />
    <glyph glyph-name="quotedbl" unicode="&#x22;" horiz-adv-x="544" 
d="M203 1434q28 0 28 -29l-12 -395q0 -27 -26 -27h-62q-27 0 -27 27l-12 395q0 29 29 29h82zM422 1434q29 0 29 -29l-11 -395q0 -27 -26 -27h-64q-24 0 -24 27l-13 395q0 29 29 29h80z" />
    <glyph glyph-name="numbersign" unicode="#" horiz-adv-x="1370" 
d="M1221 997q28 0 22 -26l-8 -41q-6 -27 -31 -27h-184l-98 -373h176q28 0 22 -26l-10 -41q-6 -27 -31 -27h-182l-109 -411q-6 -25 -32 -25h-43q-30 0 -21 35l107 401h-377l-109 -411q-6 -25 -32 -25h-43q-30 0 -21 35l107 401h-177q-28 0 -22 27l10 41q6 26 31 26h182
l98 373h-174q-28 0 -22 27l8 41q6 26 31 26h182l109 412q6 25 32 25h43q30 0 21 -35l-107 -402h377l109 412q6 25 32 25h43q30 0 21 -35l-107 -402h177zM823 530l99 373h-377l-99 -373h377z" />
    <glyph glyph-name="dollar" unicode="$" horiz-adv-x="905" 
d="M793 479q0 -120 -79 -194t-202 -90v-168q0 -27 -27 -27h-59q-27 0 -27 27v166q-91 10 -160.5 52t-113.5 97q-22 25 -4 51l33 43q7 11 20 10.5t25 -12.5q53 -55 111 -85t136 -30q90 0 145.5 42t55.5 118q0 65 -40 105t-118 73l-118 50q-105 44 -165.5 106.5t-60.5 161.5
q0 109 71.5 179.5t182.5 84.5v168q0 27 27 27h59q27 0 27 -27v-168q142 -22 233 -133q18 -21 -2 -45l-32 -39q-23 -26 -49 0q-92 96 -205 96q-72 0 -121 -36t-49 -103q0 -35 11 -61.5t36.5 -47t52 -34.5t70.5 -33l98 -39q113 -45 175.5 -111t62.5 -174z" />
    <glyph glyph-name="percent" unicode="%" horiz-adv-x="1490" 
d="M383 889q-116 0 -198.5 80t-82.5 196q0 118 82.5 198.5t198.5 80.5t198.5 -80.5t82.5 -198.5q0 -116 -82.5 -196t-198.5 -80zM305 8l-49 33q-21 16 -6 39l899 1335q16 26 37 10l49 -32q21 -16 6 -39l-899 -1336q-16 -26 -37 -10zM383 993q73 0 122.5 49t49.5 123
q0 76 -49.5 125t-122.5 49t-122.5 -49t-49.5 -125q0 -74 49.5 -123t122.5 -49zM1108 -10q-116 0 -198.5 80t-82.5 196q0 118 82.5 198.5t198.5 80.5t198.5 -80.5t82.5 -198.5q0 -116 -82.5 -196t-198.5 -80zM1108 94q73 0 122.5 49t49.5 123q0 76 -49.5 125t-122.5 49
t-122.5 -49t-49.5 -125q0 -74 49.5 -123t122.5 -49z" />
    <glyph glyph-name="ampersand" unicode="&#x26;" horiz-adv-x="1374" 
d="M1274 84q19 -22 -2 -43l-49 -47q-23 -23 -43 0l-199 219q-190 -240 -455 -240q-184 0 -303 106t-119 292q0 78 22 142.5t69.5 119.5t101 97.5t135.5 94.5q-87 99 -129.5 172t-42.5 158q0 121 86.5 204t224.5 83t224 -83t86 -204q0 -56 -18 -105.5t-54 -92.5t-78 -78.5
t-102 -75.5l340 -379l139 223q13 19 25 19h104q10 0 14.5 -7.5t-2.5 -19.5l-190 -313v-2zM571 1315q-75 0 -122.5 -45.5t-47.5 -118.5q0 -45 24.5 -96t51 -83.5t66.5 -74.5l4 2q100 66 147 121t47 127q0 76 -48 122t-122 46zM545 109q196 0 348 202l-375 416l-31 -20
q-57 -39 -91 -66t-69.5 -67t-52 -86.5t-16.5 -104.5q0 -130 83 -202t204 -72z" />
    <glyph glyph-name="quotesingle" unicode="'" horiz-adv-x="323" 
d="M203 1434q28 0 28 -29l-12 -395q0 -27 -26 -27h-62q-27 0 -27 27l-12 395q0 29 29 29h82z" />
    <glyph glyph-name="parenleft" unicode="(" horiz-adv-x="591" 
d="M442 1526q17 0 23.5 -10t-0.5 -27q-93 -176 -143 -390.5t-50 -443.5q0 -243 50 -469.5t143 -414.5q7 -17 0.5 -27t-23.5 -10h-80q-25 0 -36 20q-101 178 -152 417t-51 484q0 225 52.5 451.5t150.5 398.5q12 21 36 21h80z" />
    <glyph glyph-name="parenright" unicode=")" horiz-adv-x="591" 
d="M150 1526h79q25 0 37 -21q98 -172 150.5 -398.5t52.5 -451.5q0 -245 -51 -484t-152 -417q-11 -20 -37 -20h-79q-17 0 -23.5 10t0.5 27q192 387 192 884q0 229 -49.5 443.5t-142.5 390.5q-7 17 -0.5 27t23.5 10z" />
    <glyph glyph-name="asterisk" unicode="*" horiz-adv-x="903" 
d="M414 1192l-11 242h93l-9 -242h-73zM389 1114l-235 64l22 88l238 -74zM512 1114l-25 78l240 74l23 -88zM315 862l-75 51l149 201l62 -49zM588 862l-137 203l61 49l152 -201z" />
    <glyph glyph-name="plus" unicode="+" horiz-adv-x="882" 
d="M721 645q29 0 29 -29v-69q0 -29 -29 -29h-215v-217q0 -29 -29 -29h-69q-29 0 -29 29v217h-217q-29 0 -29 29v69q0 29 29 29h217v215q0 29 29 29h69q29 0 29 -29v-215h215z" />
    <glyph glyph-name="comma" unicode="," horiz-adv-x="438" 
d="M92 -256v55q79 1 123 69q31 47 20 82q-6 20 -26 19q-50 -1 -82.5 29t-32.5 76q0 48 34 79t81 31q58 0 97.5 -48t39.5 -126q0 -107 -72 -187t-182 -79z" />
    <glyph glyph-name="hyphen" unicode="-" horiz-adv-x="890" 
d="M752 643q26 0 26 -27v-75q0 -27 -26 -27h-613q-26 0 -26 27v75q0 27 26 27h613z" />
    <glyph glyph-name="period" unicode="." horiz-adv-x="397" 
d="M199 -27q-43 0 -75 31t-32 76q0 42 32 73t75 31t73.5 -30.5t30.5 -73.5q0 -45 -30.5 -76t-73.5 -31z" />
    <glyph glyph-name="slash" unicode="/" horiz-adv-x="903" 
d="M836 1526q34 0 22 -35l-661 -1733q-9 -24 -35 -24h-94q-35 0 -23 35l662 1732q9 25 34 25h95z" />
    <glyph glyph-name="zero" unicode="0" horiz-adv-x="1267" 
d="M633 1450q245 0 387.5 -195t142.5 -544q0 -347 -142.5 -542.5t-387.5 -195.5q-244 0 -387.5 195.5t-143.5 542.5q0 348 143.5 543.5t387.5 195.5zM633 1311q-181 0 -283 -158t-102 -442q0 -283 102 -440.5t283 -157.5q182 0 283.5 157t101.5 441q0 285 -101.5 442.5
t-283.5 157.5z" />
    <glyph glyph-name="one" unicode="1" horiz-adv-x="608" 
d="M449 1434q26 0 26 -29v-1376q0 -29 -26 -29h-95q-26 0 -26 29v1274h-222q-24 0 -24 28v74q0 29 24 29h343z" />
    <glyph glyph-name="two" unicode="2" horiz-adv-x="1024" 
d="M858 131q29 0 29 -29v-73q0 -29 -29 -29h-737q-29 0 -29 29v77q0 25 14 39l445 533q36 41 55 64.5t49.5 66.5t46.5 76.5t28.5 78t12.5 87.5q0 115 -74.5 188.5t-197.5 73.5q-55 0 -100.5 -14.5t-78.5 -42t-52.5 -51t-40.5 -56.5q-7 -12 -18.5 -12.5t-20.5 8.5l-58 53
q-18 18 -2 45q137 207 379 207q185 0 297.5 -112t112.5 -277q0 -52 -14 -105t-30.5 -90.5t-49 -86t-51.5 -72t-56 -68.5l-422 -508h592z" />
    <glyph glyph-name="three" unicode="3" horiz-adv-x="1032" 
d="M479 -27q-128 0 -227.5 53t-163.5 146q-14 20 6 37l62 55q17 17 32 -4q111 -149 289 -149q134 0 218.5 82t84.5 210q0 136 -93.5 217.5t-227.5 81.5h-35q-29 0 -29 23v76q0 26 29 26h35q119 0 191.5 72.5t72.5 179.5q0 101 -66.5 167.5t-175.5 66.5q-157 0 -248 -146
q-17 -22 -38 -4l-60 56q-12 12 0 34q54 86 147 141.5t212 55.5q162 0 267 -99t105 -249q0 -110 -56.5 -194.5t-158.5 -135.5q125 -42 202 -141t77 -240q0 -181 -127 -299.5t-324 -118.5z" />
    <glyph glyph-name="four" unicode="4" horiz-adv-x="1118" 
d="M1001 469q25 0 25 -29v-71q0 -29 -25 -29h-151v-311q0 -29 -27 -29h-94q-27 0 -27 29v311h-579q-13 0 -22 9t-9 22v84q0 18 8 30l590 928q15 21 35 21h96q13 0 21 -8.5t8 -22.5v-934h151zM244 469h458v727z" />
    <glyph glyph-name="five" unicode="5" horiz-adv-x="1101" 
d="M551 932q189 0 317.5 -131t128.5 -340q0 -146 -65.5 -258.5t-174.5 -171t-241 -58.5q-133 0 -235.5 55.5t-157.5 131.5q-18 27 2 41l68 53q19 16 38 -10q47 -56 119 -94.5t164 -38.5q144 0 243 98t99 254q0 151 -95 244.5t-235 93.5q-73 0 -145.5 -29.5t-124.5 -97.5
q-15 -21 -51 -6l-55 22q-27 11 -21 37l145 680q7 27 33 27h572q24 0 24 -29v-74q0 -28 -24 -28h-492l-94 -453q46 37 115 59.5t143 22.5z" />
    <glyph glyph-name="six" unicode="6" horiz-adv-x="1138" 
d="M578 913q192 0 324 -131.5t132 -330.5q0 -203 -132 -340.5t-333 -137.5t-333 136t-132 337q0 178 138 359l493 653q19 26 39 8l70 -55q18 -16 2 -37l-365 -471q52 10 97 10zM569 111q138 0 230 93.5t92 241.5q0 149 -91.5 241.5t-230.5 92.5q-138 0 -229.5 -92.5
t-91.5 -241.5q0 -148 91.5 -241.5t229.5 -93.5z" />
    <glyph glyph-name="seven" unicode="7" horiz-adv-x="1021" 
d="M938 1434q14 0 20 -11t0 -26l-565 -1366q-14 -31 -35 -31h-90q-15 0 -20.5 10t0.5 25l532 1268h-674q-24 0 -24 28v74q0 29 24 29h832z" />
    <glyph glyph-name="eight" unicode="8" horiz-adv-x="1110" 
d="M555 -27q-193 0 -323 119.5t-130 304.5q0 146 80.5 251.5t198.5 146.5q-92 42 -143.5 124.5t-51.5 182.5q0 145 103 246.5t266 101.5q164 0 266.5 -101.5t102.5 -246.5q0 -100 -51.5 -182.5t-143.5 -124.5q120 -41 199.5 -146t79.5 -252q0 -185 -130 -304.5t-323 -119.5z
M555 854q104 0 171 68.5t67 173.5q0 102 -66.5 166.5t-171.5 64.5t-171.5 -64.5t-66.5 -166.5q0 -105 67 -173.5t171 -68.5zM555 106q136 0 222.5 84t86.5 216q0 134 -89.5 218.5t-219.5 84.5q-129 0 -219 -84.5t-90 -218.5q0 -131 87 -215.5t222 -84.5z" />
    <glyph glyph-name="nine" unicode="9" horiz-adv-x="1138" 
d="M569 1450q201 0 333 -136t132 -337q0 -179 -137 -359l-494 -653q-18 -25 -38 -8l-70 55q-18 16 -2 37l364 471q-52 -10 -98 -10q-192 0 -323.5 132t-131.5 331q0 203 132 340t333 137zM569 643q139 0 230.5 92.5t91.5 241.5q0 148 -92 242t-230 94t-229.5 -94t-91.5 -242
q0 -149 91.5 -241.5t229.5 -92.5z" />
    <glyph glyph-name="colon" unicode=":" horiz-adv-x="397" 
d="M199 817q-43 0 -75 30.5t-32 74.5t32 75t75 31t73.5 -31t30.5 -75t-30.5 -74.5t-73.5 -30.5zM199 -25q-43 0 -75 31t-32 76q0 42 32 73t75 31t73.5 -30.5t30.5 -73.5q0 -45 -30.5 -76t-73.5 -31z" />
    <glyph glyph-name="semicolon" unicode=";" horiz-adv-x="438" 
d="M201 817q-43 0 -75 30.5t-32 74.5t32 75t75 31t73.5 -31t30.5 -75t-30.5 -74.5t-73.5 -30.5zM92 -256v55q79 1 123 69q31 47 20 82q-6 20 -26 19q-50 -1 -82.5 29t-32.5 76q0 48 34 79t81 31q58 0 97.5 -48t39.5 -126q0 -107 -72 -187t-182 -79z" />
    <glyph glyph-name="less" unicode="&#x3c;" horiz-adv-x="1058" 
d="M899 39l-754 401q-22 9 -22 37v68q0 24 22 37l754 403q15 9 26 4t11 -22v-80q0 -23 -23 -33l-659 -342l659 -342q23 -13 23 -33v-80q0 -17 -11 -22t-26 4z" />
    <glyph glyph-name="equal" unicode="=" horiz-adv-x="923" 
d="M162 649q-29 0 -29 29v70q0 28 29 28h600q29 0 29 -28v-70q0 -29 -29 -29h-600zM162 389q-29 0 -29 29v69q0 29 29 29h600q29 0 29 -29v-69q0 -29 -29 -29h-600z" />
    <glyph glyph-name="greater" unicode="&#x3e;" horiz-adv-x="1058" 
d="M160 39q-15 -9 -26 -4t-11 22v80q0 20 22 33l660 342l-660 342q-22 9 -22 33v80q0 17 11 22t26 -4l753 -403q23 -13 23 -37v-68q0 -27 -23 -37z" />
    <glyph glyph-name="question" unicode="?" horiz-adv-x="923" 
d="M393 371q-26 0 -26 30v76q0 69 17 128t44 100.5t59.5 78t65.5 69.5t60 67t44 78t17 94q0 104 -64 159.5t-164 55.5q-179 0 -258 -187q-12 -23 -47 -2l-47 29q-28 17 -18 45q16 48 47 92t77 82t113 61t146 23q158 0 260 -89t102 -245q0 -72 -23 -134t-58 -104t-76.5 -88
t-77 -87t-60 -101t-26.5 -129l-2 -72q0 -30 -27 -30h-78zM432 -27q-43 0 -73.5 31t-30.5 76q0 43 30.5 73.5t73.5 30.5q44 0 75.5 -30.5t31.5 -73.5q0 -45 -31 -76t-76 -31z" />
    <glyph glyph-name="at" unicode="@" horiz-adv-x="1738" 
d="M883 1450q145 0 276 -51t230.5 -143.5t158 -231t58.5 -303.5q0 -112 -27 -193t-72 -123t-93 -60.5t-101 -18.5q-149 0 -189 129q-101 -129 -276 -129q-163 0 -268 109t-105 270t104.5 269.5t268.5 108.5q93 0 166.5 -37.5t120.5 -105.5l32 104h86l-45 -452
q-14 -154 109 -154q79 0 119.5 69.5t40.5 199.5q0 152 -50.5 273t-135 194.5t-188.5 112t-218 38.5q-93 0 -182 -24t-168.5 -74.5t-139.5 -121t-95.5 -171.5t-35.5 -219q0 -117 36 -218.5t96.5 -173.5t140.5 -123.5t168.5 -76.5t179.5 -25q185 0 319 101l78 -90
q-76 -65 -182 -100.5t-223 -35.5q-144 0 -278 53t-237 147t-165 235.5t-62 306.5q0 167 63 308t168 233t239 143t278 51zM850 440q118 0 189 74.5t71 190.5t-71 190t-189 74q-117 0 -186.5 -74t-69.5 -190t69.5 -190.5t186.5 -74.5z" />
    <glyph glyph-name="A" unicode="A" horiz-adv-x="1394" 
d="M1288 35q6 -15 0.5 -25t-22.5 -10h-103q-25 0 -33 25l-104 297h-655l-105 -297q-8 -25 -35 -25h-100q-17 0 -22.5 10t0.5 25l495 1374q9 25 37 25h113q28 0 37 -25zM420 459h557l-279 792z" />
    <glyph glyph-name="B" unicode="B" horiz-adv-x="1198" 
d="M205 0q-29 0 -29 29v1376q0 29 29 29h413q105 0 183 -29.5t121.5 -80.5t64.5 -110.5t21 -126.5q0 -105 -53 -189.5t-154 -119.5q136 -32 214.5 -135t78.5 -244q0 -181 -123.5 -290t-358.5 -109h-407zM328 829h276q118 0 187 64t69 180q0 223 -256 223h-276v-467zM328 137
h276q164 0 249 72t85 209q0 135 -86 211t-248 76h-276v-568z" />
    <glyph glyph-name="C" unicode="C" horiz-adv-x="1486" 
d="M862 -27q-208 0 -375 98t-259.5 266.5t-92.5 373.5t92.5 374t259.5 267t375 98q277 0 484 -184q25 -25 6 -49l-58 -64q-20 -20 -45 0q-166 147 -383 147q-163 0 -294.5 -76t-206 -210.5t-74.5 -302.5t74.5 -302.5t206 -210t294.5 -75.5q217 0 383 147q24 21 43 2l60 -65
q20 -21 -6 -47q-207 -187 -484 -187z" />
    <glyph glyph-name="D" unicode="D" horiz-adv-x="1370" 
d="M205 0q-29 0 -29 29v1376q0 29 29 29h311q183 0 324 -54t228.5 -151t132 -226.5t44.5 -285.5t-44.5 -285.5t-132 -226.5t-228.5 -151t-324 -54h-311zM330 137h184q291 0 433.5 151.5t142.5 428.5t-142.5 428t-433.5 151h-184v-1159z" />
    <glyph glyph-name="E" unicode="E" horiz-adv-x="1077" 
d="M205 0q-29 0 -29 29v1376q0 29 29 29h686q29 0 29 -29v-80q0 -29 -29 -29h-561v-487h532q29 0 29 -29v-80q0 -28 -29 -28h-532v-535h563q29 0 29 -28v-80q0 -29 -29 -29h-688z" />
    <glyph glyph-name="F" unicode="F" horiz-adv-x="1044" 
d="M205 0q-29 0 -29 29v1376q0 29 29 29h667q29 0 29 -29v-80q0 -29 -29 -29h-542v-475h516q28 0 28 -28v-80q0 -29 -28 -29h-516v-655q0 -29 -29 -29h-96z" />
    <glyph glyph-name="G" unicode="G" horiz-adv-x="1644" 
d="M1501 743q14 0 22.5 -8.5t8.5 -21.5v-64q0 -191 -79.5 -344t-231.5 -242.5t-351 -89.5q-210 0 -379 98t-262.5 266.5t-93.5 373.5q0 153 55 289.5t151 235.5t233 156.5t294 57.5q282 0 484 -193q19 -19 4 -34l-64 -74q-15 -18 -35 -2q-173 153 -389 153q-122 0 -229 -45
t-183.5 -122.5t-120.5 -187t-44 -234.5q0 -253 165 -420.5t414 -167.5q227 0 369.5 135t142.5 346h-491q-29 0 -29 29v84q0 26 29 26h610z" />
    <glyph glyph-name="H" unicode="H" horiz-adv-x="1335" 
d="M1130 1434q29 0 29 -29v-1376q0 -29 -29 -29h-96q-28 0 -28 29v614h-676v-614q0 -29 -29 -29h-96q-29 0 -29 29v1376q0 29 29 29h96q29 0 29 -29v-625h676v625q0 29 28 29h96z" />
    <glyph glyph-name="I" unicode="I" horiz-adv-x="503" 
d="M205 0q-29 0 -29 29v1376q0 29 29 29h96q29 0 29 -29v-1376q0 -29 -29 -29h-96z" />
    <glyph glyph-name="J" unicode="J" horiz-adv-x="1028" 
d="M440 -27q-191 0 -319 140q-17 22 2 41l51 67q18 21 37 2q36 -32 60.5 -50t69.5 -34t97 -16q125 0 192.5 85t67.5 257v940q0 29 29 29h96q29 0 29 -29v-944q0 -237 -111 -362.5t-301 -125.5z" />
    <glyph glyph-name="K" unicode="K" horiz-adv-x="1255" 
d="M1155 37q11 -15 6 -26t-24 -11h-113q-24 0 -37 18l-475 631l-182 -233v-387q0 -29 -29 -29h-96q-29 0 -29 29v1376q0 29 29 29h96q29 0 29 -29v-780l594 792q14 17 37 17h120q20 0 24.5 -11t-7.5 -26l-492 -629z" />
    <glyph glyph-name="L" unicode="L" horiz-adv-x="993" 
d="M850 137q14 0 22.5 -8.5t8.5 -22.5v-75q0 -13 -8.5 -22t-22.5 -9h-645q-29 0 -29 29v1376q0 29 29 29h96q29 0 29 -29v-1268h520z" />
    <glyph glyph-name="M" unicode="M" horiz-adv-x="1789" 
d="M1585 1434q29 0 29 -29v-1376q0 -29 -29 -29h-96q-29 0 -29 29v1151l-30 -95l-449 -1062q-9 -23 -35 -23h-102q-26 0 -35 23l-449 1062l-30 93v-1149q0 -29 -29 -29h-96q-29 0 -29 29v1376q0 29 29 29h133q24 0 33 -21l524 -1245l524 1245q9 21 33 21h133z" />
    <glyph glyph-name="N" unicode="N" horiz-adv-x="1370" 
d="M1165 1434q29 0 29 -29v-1376q0 -29 -29 -29h-131q-26 0 -37 20l-667 1194v-1185q0 -29 -29 -29h-96q-29 0 -29 29v1376q0 29 29 29h131q25 0 37 -21l667 -1194v1186q0 29 29 29h96z" />
    <glyph glyph-name="O" unicode="O" horiz-adv-x="1734" 
d="M868 -27q-152 0 -288 57.5t-233.5 156t-154.5 235t-57 289.5t57 290.5t154.5 235.5t233.5 155.5t288 57.5q203 0 371.5 -97.5t265.5 -267t97 -374.5q0 -204 -97 -373.5t-265.5 -267t-371.5 -97.5zM868 123q162 0 294.5 76.5t208 211.5t75.5 300q0 125 -44.5 234.5
t-121 187t-184 122.5t-228.5 45q-122 0 -229 -45t-183.5 -122.5t-120.5 -187t-44 -234.5q0 -252 165 -420t412 -168z" />
    <glyph glyph-name="P" unicode="P" horiz-adv-x="1181" 
d="M205 0q-29 0 -29 29v1376q0 29 29 29h391q226 0 348.5 -123t122.5 -324q0 -200 -122.5 -322t-348.5 -122h-266v-514q0 -29 -29 -29h-96zM330 680h254q151 0 242.5 74t91.5 233q0 83 -25.5 144t-72 96t-105.5 52t-131 17h-254v-616z" />
    <glyph glyph-name="Q" unicode="Q" horiz-adv-x="1734" 
d="M1591 82q21 -22 2 -41l-63 -64q-20 -20 -43 3l-156 155q-199 -162 -463 -162q-152 0 -288 57.5t-233.5 156t-154.5 235t-57 289.5t57 290.5t154.5 235.5t233.5 155.5t288 57.5q203 0 371.5 -97.5t265.5 -267t97 -374.5q0 -270 -166 -473zM868 123q207 0 357 119l-191 190
q-21 21 -4 41l64 64q20 21 43 -2l190 -191q119 157 119 367q0 125 -44.5 234.5t-121 187t-184 122.5t-228.5 45q-122 0 -229 -45t-183.5 -122.5t-120.5 -187t-44 -234.5q0 -252 165 -420t412 -168z" />
    <glyph glyph-name="R" unicode="R" horiz-adv-x="1185" 
d="M1065 37q10 -17 4 -27t-25 -10h-102q-26 0 -37 20l-346 523h-229v-514q0 -29 -29 -29h-96q-29 0 -29 29v1376q0 29 29 29h391q226 0 348.5 -123t122.5 -324q0 -170 -90.5 -286t-259.5 -148zM330 1296v-616h254q151 0 242.5 74t91.5 233q0 83 -25.5 144t-72 96t-105.5 52
t-131 17h-254z" />
    <glyph glyph-name="S" unicode="S" horiz-adv-x="1103" 
d="M549 -25q-148 0 -255 58.5t-171 154.5q-17 27 2 43l49 56q24 24 47 -2q63 -81 140.5 -124.5t187.5 -43.5q137 0 215 67t78 181q0 46 -14.5 84.5t-34 65t-58.5 54.5t-69 44.5t-84 43.5l-174 84q-252 119 -252 351q0 162 113 260t284 98q233 0 381 -182q21 -23 -4 -51
l-43 -50q-22 -25 -47 0q-62 72 -129.5 107t-153.5 35q-110 0 -181 -56.5t-71 -158.5q0 -77 45 -132.5t142 -101.5l170 -84q59 -29 100 -52.5t87.5 -60.5t75 -77t47.5 -96.5t19 -122.5q0 -180 -123.5 -286t-318.5 -106z" />
    <glyph glyph-name="T" unicode="T" horiz-adv-x="1093" 
d="M498 0q-29 0 -29 29v1267h-305q-29 0 -29 29v80q0 29 29 29h766q28 0 28 -29v-80q0 -29 -28 -29h-307v-1267q0 -29 -29 -29h-96z" />
    <glyph glyph-name="U" unicode="U" horiz-adv-x="1288" 
d="M643 -27q-216 0 -346.5 131.5t-130.5 366.5v934q0 29 29 29h96q28 0 28 -29v-916q0 -182 88 -274t236 -92q149 0 237.5 92t88.5 274v916q0 29 28 29h97q28 0 28 -29v-934q0 -236 -130 -367t-349 -131z" />
    <glyph glyph-name="V" unicode="V" horiz-adv-x="1394" 
d="M641 0q-28 0 -37 25l-495 1374q-6 15 -0.5 25t22.5 10h100q27 0 35 -25l432 -1227l432 1227q8 25 33 25h103q17 0 22.5 -10t-0.5 -25l-497 -1374q-9 -25 -37 -25h-113z" />
    <glyph glyph-name="W" unicode="W" horiz-adv-x="2213" 
d="M2083 1434q17 0 23 -9.5t1 -25.5l-424 -1374q-8 -25 -34 -25h-113q-27 0 -35 25l-393 1216l-395 -1216q-8 -25 -35 -25h-113q-27 0 -35 25l-424 1374q-10 35 25 35h96q27 0 35 -25l365 -1204l393 1204q8 25 33 25h108q25 0 33 -25l393 -1204l365 1204q11 25 35 25h96z
" />
    <glyph glyph-name="X" unicode="X" horiz-adv-x="1288" 
d="M1157 37q10 -15 6 -26t-22 -11h-105q-22 0 -35 20l-356 580l-358 -580q-13 -20 -35 -20h-105q-18 0 -22 11t6 26l430 698l-409 662q-10 15 -6 26t22 11h108q19 0 35 -21l334 -543l334 543q13 21 33 21h108q18 0 22.5 -11t-5.5 -26l-410 -662z" />
    <glyph glyph-name="Y" unicode="Y" horiz-adv-x="1222" 
d="M1094 1434q18 0 23 -11t-5 -26l-424 -709v-659q0 -29 -29 -29h-96q-28 0 -28 29v659l-424 709q-10 15 -5 26t23 11h107q22 0 34 -21l340 -579l342 579q12 21 35 21h107z" />
    <glyph glyph-name="Z" unicode="Z" horiz-adv-x="1159" 
d="M154 0q-29 0 -29 29v90q0 19 12 37l707 1140h-670q-29 0 -29 29v80q0 29 29 29h801q29 0 29 -29v-90q0 -17 -13 -37l-706 -1141h710q29 0 29 -28v-80q0 -29 -29 -29h-841z" />
    <glyph glyph-name="bracketleft" unicode="[" horiz-adv-x="585" 
d="M436 1526q27 0 27 -27v-74q0 -26 -27 -26h-160v-1538h160q27 0 27 -27v-74q0 -26 -27 -26h-286q-27 0 -27 26v1739q0 27 27 27h286z" />
    <glyph glyph-name="backslash" unicode="\" horiz-adv-x="903" 
d="M68 1526h94q26 0 35 -25l661 -1732q12 -35 -22 -35h-95q-25 0 -34 24l-662 1733q-12 35 23 35z" />
    <glyph glyph-name="bracketright" unicode="]" horiz-adv-x="585" 
d="M150 1526h286q27 0 27 -27v-1739q0 -26 -27 -26h-286q-27 0 -27 26v74q0 27 27 27h159v1538h-159q-27 0 -27 26v74q0 27 27 27z" />
    <glyph glyph-name="asciicircum" unicode="^" horiz-adv-x="1204" 
d="M129 657l401 754q10 23 37 23h68q24 0 37 -23l403 -754q9 -15 4 -25.5t-22 -10.5h-80q-24 0 -33 22l-342 660l-342 -660q-13 -22 -33 -22h-80q-17 0 -22 10.5t4 25.5z" />
    <glyph glyph-name="underscore" unicode="_" horiz-adv-x="1269" 
d="M1120 0q27 0 27 -27v-75q0 -27 -27 -27h-970q-27 0 -27 27v75q0 27 27 27h970z" />
    <glyph glyph-name="grave" unicode="`" horiz-adv-x="321" 
d="M53 1434h90q22 0 33 -25l111 -235q14 -33 -19 -33h-88q-22 0 -33 24l-112 236q-14 33 18 33z" />
    <glyph glyph-name="a" unicode="a" 
d="M1102 1004q26 0 26 -29v-946q0 -29 -26 -29h-88q-27 0 -27 29l-2 166q-57 -104 -156 -162t-231 -58q-218 0 -356 149.5t-138 377.5q0 148 62 268t175 189t257 69q132 0 231 -59t156 -164l2 170q0 29 27 29h88zM618 113q162 0 263.5 106t101.5 279q0 174 -102 283.5
t-263 109.5q-162 0 -266 -108.5t-104 -280.5q0 -174 104 -281.5t266 -107.5z" />
    <glyph glyph-name="b" unicode="b" 
d="M684 1028q219 0 357.5 -149.5t138.5 -376.5q0 -228 -138.5 -377.5t-357.5 -149.5q-130 0 -229 58t-156 160l-4 -164q0 -29 -27 -29h-86q-26 0 -26 29v1407q0 28 26 28h94q27 0 27 -28v-621q59 101 155.5 157t225.5 56zM664 113q164 0 268 107.5t104 281.5
q0 173 -104.5 281t-267.5 108q-160 0 -261.5 -109.5t-101.5 -283.5q0 -172 101 -278.5t262 -106.5z" />
    <glyph glyph-name="c" unicode="c" horiz-adv-x="1118" 
d="M627 -25q-223 0 -373 151t-150 376t150 375.5t373 150.5q235 0 374 -168q20 -26 5 -41l-54 -49q-22 -22 -47 2q-53 57 -117 88t-155 31q-167 0 -276 -109t-109 -280t109.5 -280t277.5 -109q163 0 270 116q27 27 49 4l54 -49q15 -15 -4 -41q-139 -168 -377 -168z" />
    <glyph glyph-name="d" unicode="d" 
d="M1102 1464q26 0 26 -28v-1407q0 -29 -26 -29h-88q-27 0 -27 29l-2 166q-57 -104 -156 -162t-231 -58q-218 0 -356 149.5t-138 377.5q0 148 62 268t175 189t257 69q129 0 226.5 -57t156.5 -158v623q0 28 27 28h94zM618 113q162 0 263.5 106t101.5 279q0 174 -102 283.5
t-263 109.5q-162 0 -266 -108.5t-104 -280.5q0 -174 104 -281.5t266 -107.5z" />
    <glyph glyph-name="e" unicode="e" horiz-adv-x="1181" 
d="M1077 553q0 -58 -15 -81t-58 -23h-756q14 -155 118 -252t281 -97q161 0 289 97q18 14 31 -2l34 -48q9 -15 6.5 -23t-14.5 -20q-135 -129 -358 -129q-160 0 -282 72t-185.5 192t-63.5 267t63 265.5t178.5 187.5t262.5 69q108 0 198 -39.5t148.5 -106t90.5 -151.5t32 -178z
M606 897q-149 0 -247 -91t-111 -243h698q-5 149 -97 241.5t-243 92.5z" />
    <glyph glyph-name="f" unicode="f" horiz-adv-x="714" 
d="M528 1362q-80 0 -108.5 -42.5t-28.5 -121.5v-194h203q29 0 29 -29v-66q0 -28 -29 -28h-203v-852q0 -29 -26 -29h-95q-26 0 -26 29v852h-121q-29 0 -29 28v66q0 29 29 29h121v227q0 130 66 198t196 68q59 0 98 -16q19 -8 19 -27v-84q0 -18 -25 -14q-40 6 -70 6z" />
    <glyph glyph-name="g" unicode="g" horiz-adv-x="1271" 
d="M1090 1004q26 0 26 -29v-936q0 -118 -43 -208.5t-116.5 -144t-163 -80t-191.5 -26.5q-103 0 -195 26.5t-155 69.5q-26 16 -14 41l30 58q13 23 37 10q127 -78 291 -78q77 0 142 18t119 56t85 106t31 160v170q-57 -98 -153.5 -151.5t-227.5 -53.5q-215 0 -351.5 142
t-136.5 366q0 223 136 365.5t350 142.5q132 0 229 -55t156 -156l2 158q0 29 24 29h89zM612 147q160 0 259.5 100.5t99.5 268.5q0 170 -99.5 273.5t-259.5 103.5q-158 0 -261 -102.5t-103 -270.5q0 -169 103 -271t261 -102z" />
    <glyph glyph-name="h" unicode="h" horiz-adv-x="1155" 
d="M631 1028q168 0 269 -107.5t101 -302.5v-589q0 -29 -26 -29h-96q-25 0 -25 29v575q0 134 -68 210.5t-192 76.5q-127 0 -209 -78t-82 -209v-575q0 -29 -27 -29h-94q-26 0 -26 29v1407q0 28 26 28h94q27 0 27 -28v-592q46 83 128.5 133.5t199.5 50.5z" />
    <glyph glyph-name="i" unicode="i" horiz-adv-x="456" 
d="M229 1264q-38 0 -65 27t-27 65q0 40 27 67t65 27q39 0 66 -27t27 -67q0 -38 -27.5 -65t-65.5 -27zM182 0q-26 0 -26 29v946q0 29 26 29h94q27 0 27 -29v-946q0 -29 -27 -29h-94z" />
    <glyph glyph-name="j" unicode="j" horiz-adv-x="477" 
d="M250 1264q-38 0 -65 27t-27 65q0 40 27 67t65 27t65 -27t27 -67q0 -38 -27 -65t-65 -27zM61 -410q-60 0 -98 17q-11 5 -14.5 9.5t-3.5 16.5v84q0 19 24 15q40 -6 68 -6q81 0 110 42t29 121v1086q0 29 27 29h94q27 0 27 -29v-1118q0 -130 -66.5 -198.5t-196.5 -68.5z" />
    <glyph glyph-name="k" unicode="k" horiz-adv-x="1083" 
d="M993 33q10 -12 5 -22.5t-23 -10.5h-101q-23 0 -36 18l-361 459l-174 -186v-262q0 -29 -27 -29h-94q-26 0 -26 29v1407q0 28 26 28h94q27 0 27 -28v-963l471 514q14 17 35 17h119q17 0 19 -10t-9 -21l-371 -398z" />
    <glyph glyph-name="l" unicode="l" horiz-adv-x="456" 
d="M182 0q-26 0 -26 29v1407q0 28 26 28h94q27 0 27 -28v-1407q0 -29 -27 -29h-94z" />
    <glyph glyph-name="m" unicode="m" horiz-adv-x="1683" 
d="M1196 1028q158 0 245 -102t87 -297v-600q0 -29 -27 -29h-94q-27 0 -27 29v583q0 134 -55 206.5t-162 72.5q-112 0 -180 -75t-68 -204v-583q0 -29 -26 -29h-94q-27 0 -27 29v583q0 132 -59.5 205.5t-167.5 73.5q-112 0 -175 -74t-63 -205v-583q0 -29 -27 -29h-94
q-26 0 -26 29v946q0 29 26 29h86q29 0 29 -31l4 -115q89 170 285 170q106 0 182.5 -50t114.5 -147q39 88 116.5 142.5t196.5 54.5z" />
    <glyph glyph-name="n" unicode="n" horiz-adv-x="1155" 
d="M631 1028q168 0 269 -107.5t101 -302.5v-589q0 -29 -26 -29h-96q-25 0 -25 29v575q0 134 -68 210.5t-192 76.5q-127 0 -209 -78t-82 -209v-575q0 -29 -27 -29h-94q-26 0 -26 29v946q0 29 26 29h86q29 0 29 -31l6 -129q46 83 128.5 133.5t199.5 50.5z" />
    <glyph glyph-name="o" unicode="o" horiz-adv-x="1234" 
d="M618 -25q-144 0 -262 69t-185 190t-67 268t67 268t185 189.5t262 68.5q218 0 365 -151t147 -375t-147 -375.5t-365 -151.5zM618 113q159 0 264 110t105 279t-105 279t-264 110q-160 0 -265 -109.5t-105 -279.5t105 -279.5t265 -109.5z" />
    <glyph glyph-name="p" unicode="p" 
d="M684 1028q219 0 357.5 -149.5t138.5 -376.5q0 -228 -138.5 -377.5t-357.5 -149.5q-129 0 -225.5 55t-155.5 154v-544q0 -29 -27 -29h-94q-26 0 -26 29v1335q0 29 26 29h86q27 0 27 -29l4 -168q57 104 156 162.5t229 58.5zM664 113q164 0 268 107.5t104 281.5
q0 173 -104.5 281t-267.5 108q-160 0 -261.5 -109.5t-101.5 -283.5q0 -172 101 -278.5t262 -106.5z" />
    <glyph glyph-name="q" unicode="q" 
d="M1102 1004q26 0 26 -29v-1335q0 -29 -26 -29h-94q-27 0 -27 29v546q-59 -100 -156.5 -155.5t-226.5 -55.5q-218 0 -356 149.5t-138 377.5q0 148 62 268t175 189t257 69q132 0 231 -59t156 -164l2 170q0 29 27 29h88zM618 113q162 0 263.5 106t101.5 279q0 174 -102 283.5
t-263 109.5q-162 0 -266 -108.5t-104 -280.5q0 -174 104 -281.5t266 -107.5z" />
    <glyph glyph-name="r" unicode="r" horiz-adv-x="724" 
d="M625 1008q16 -11 16 -35v-70q0 -30 -37 -20q-34 10 -72 10q-64 0 -111 -26.5t-71.5 -69.5t-35.5 -87.5t-11 -91.5v-589q0 -29 -27 -29h-94q-26 0 -26 29v946q0 29 26 29h86q29 0 29 -31l4 -115q71 170 231 170q63 0 93 -20z" />
    <glyph glyph-name="s" unicode="s" horiz-adv-x="907" 
d="M451 -25q-111 0 -194.5 44.5t-131.5 107.5q-20 23 -2 51l31 41q9 12 22 12t25 -12q106 -115 245 -115q91 0 146 41t55 117q0 66 -40.5 106.5t-117.5 73.5l-118 50q-105 44 -165.5 106.5t-60.5 161.5q0 121 89 194.5t219 73.5q87 0 162.5 -36t129.5 -103q18 -21 -2 -45
l-32 -37q-23 -26 -49 0q-92 96 -203 96q-74 0 -123 -36t-49 -103q0 -66 41 -102t131 -74l98 -41q112 -45 174 -110t62 -173q0 -135 -99.5 -212t-242.5 -77z" />
    <glyph glyph-name="t" unicode="t" horiz-adv-x="694" 
d="M571 881h-170v-670q0 -57 23 -82t70 -25q18 0 63 5q39 5 39 -27v-62q0 -24 -40 -34.5t-89 -10.5q-213 0 -213 218v688h-131q-29 0 -29 28v66q0 29 29 29h131v237q0 29 27 29h94q26 0 26 -29v-237h170q29 0 29 -29v-66q0 -28 -29 -28z" />
    <glyph glyph-name="u" unicode="u" horiz-adv-x="1157" 
d="M975 1004q26 0 26 -29v-946q0 -29 -26 -29h-88q-29 0 -29 31l-4 133q-47 -85 -129 -137t-201 -52q-167 0 -267.5 107.5t-100.5 302.5v590q0 29 26 29h94q27 0 27 -29v-576q0 -135 67 -210.5t191 -75.5q127 0 210 77.5t83 208.5v576q0 29 25 29h96z" />
    <glyph glyph-name="v" unicode="v" horiz-adv-x="1116" 
d="M510 0q-28 0 -37 25l-375 944q-12 35 23 35h94q24 0 33 -25l309 -815l311 815q9 25 33 25h94q35 0 23 -35l-375 -944q-9 -25 -37 -25h-96z" />
    <glyph glyph-name="w" unicode="w" horiz-adv-x="1781" 
d="M463 0q-28 0 -37 25l-328 944q-12 35 23 35h92q24 0 33 -25l274 -817l283 817q9 25 37 25h102q28 0 37 -25l283 -817l274 817q9 25 31 25h94q34 0 22 -35l-329 -944q-9 -25 -37 -25h-105q-27 0 -36 25l-285 817l-287 -817q-9 -25 -37 -25h-104z" />
    <glyph glyph-name="x" unicode="x" horiz-adv-x="1003" 
d="M117 0q-17 0 -22 10t5 25l314 477l-299 457q-9 15 -5 25t21 10h105q22 0 34 -21l232 -367l233 367q12 21 35 21h104q17 0 21.5 -10t-4.5 -25l-301 -457l315 -477q10 -15 5.5 -25t-21.5 -10h-105q-23 0 -34 20l-248 390l-246 -390q-11 -20 -35 -20h-104z" />
    <glyph glyph-name="y" unicode="y" horiz-adv-x="1116" 
d="M362 -389q-15 0 -20.5 8.5t0.5 22.5l141 354l-385 973q-12 35 23 35h94q24 0 33 -25l309 -815l311 815q9 25 33 25h94q35 0 23 -35l-529 -1334q-9 -24 -34 -24h-93z" />
    <glyph glyph-name="z" unicode="z" horiz-adv-x="985" 
d="M143 0q-28 0 -28 29v77q0 20 14 37l573 734h-552q-29 0 -29 28v70q0 29 29 29h688q30 0 30 -29v-78q0 -19 -14 -37l-575 -733h563q28 0 28 -29v-69q0 -29 -28 -29h-699z" />
    <glyph glyph-name="braceleft" unicode="{" horiz-adv-x="626" 
d="M477 1526q27 0 27 -27v-74q0 -26 -27 -26h-45q-34 0 -53 -19t-19 -53v-541q0 -23 -10 -38l-63 -101q-12 -20 0 -41l63 -96q10 -18 10 -39v-539q0 -34 19 -52.5t53 -18.5h45q27 0 27 -27v-74q0 -26 -27 -26h-121q-66 0 -106.5 41.5t-40.5 109.5v576q0 24 -10 39l-68 106
q-13 22 -2 41l70 111q10 18 10 39v577q0 68 40.5 110t106.5 42h121z" />
    <glyph glyph-name="bar" unicode="|" horiz-adv-x="503" 
d="M205 -389q-29 0 -29 29v1970q0 28 29 28h96q29 0 29 -28v-1970q0 -29 -29 -29h-96z" />
    <glyph glyph-name="braceright" unicode="}" horiz-adv-x="626" 
d="M150 1526h120q66 0 107 -42t41 -110v-577q0 -21 10 -39l70 -111q11 -19 -2 -41l-68 -106q-10 -15 -10 -39v-576q0 -67 -41 -109t-107 -42h-120q-27 0 -27 26v74q0 27 27 27h45q34 0 52.5 18.5t18.5 52.5v539q0 21 10 39l64 96q12 21 0 41l-64 101q-10 15 -10 38v541
q0 34 -18.5 53t-52.5 19h-45q-27 0 -27 26v74q0 27 27 27z" />
    <glyph glyph-name="asciitilde" unicode="~" horiz-adv-x="921" 
d="M612 465q-43 0 -80 15t-64 36.5t-52 43.5t-55 37t-62 15q-40 0 -63.5 -19.5t-30.5 -47.5q-6 -21 -25 -21h-37q-23 0 -20 29q6 78 57.5 120t126.5 42q43 0 80.5 -15t65 -37t52.5 -44t55 -37t61 -15q39 0 63 21t31 49q6 20 24 20h39q24 0 21 -30q-7 -77 -60 -119.5
t-127 -42.5z" />
    <glyph glyph-name="uni00A0" unicode="&#xa0;" horiz-adv-x="409" 
 />
    <glyph glyph-name="exclamdown" unicode="&#xa1;" horiz-adv-x="458" 
d="M229 1092q43 0 74 -31t31 -76q0 -43 -31 -73.5t-74 -30.5t-74.5 30.5t-31.5 73.5q0 45 31.5 76t74.5 31zM197 680h67q27 0 27 -29l16 -991q0 -29 -24 -29h-105q-26 0 -26 29l18 991q0 29 27 29z" />
    <glyph glyph-name="cent" unicode="&#xa2;" horiz-adv-x="1036" 
d="M926 434q14 -14 -2 -37q-121 -140 -318 -149v-221q0 -27 -26 -27h-25q-27 0 -27 27v223q-184 19 -304 149t-120 318t120 318t304 149v223q0 27 27 27h25q26 0 26 -27v-221q197 -9 316 -150q18 -21 2 -35l-47 -45q-18 -18 -43 2q-94 97 -228 105v-692q139 8 228 104
q26 23 45 4zM236 717q0 -136 81 -229.5t211 -112.5v684q-130 -19 -211 -112t-81 -230z" />
    <glyph glyph-name="sterling" unicode="&#xa3;" horiz-adv-x="1064" 
d="M573 1313q-121 0 -193.5 -72.5t-72.5 -187.5q0 -58 20.5 -115t57.5 -128t53 -114h285q27 0 27 -26v-58q0 -26 -27 -26h-256q6 -38 6 -78q0 -122 -50.5 -217t-131.5 -160h614q29 0 29 -29v-73q0 -29 -29 -29h-764q-26 0 -26 29v102q34 19 65.5 45.5t69 70.5t60 108.5
t22.5 140.5q0 32 -8 90h-181q-24 0 -24 26v58q0 26 24 26h146q-13 33 -51.5 109t-57 135.5t-18.5 126.5q0 163 110.5 273t292.5 110q240 0 377 -207q16 -27 -2 -45l-55 -53q-9 -9 -20.5 -8.5t-18.5 12.5q-22 33 -42 56t-53 51t-78 42.5t-100 14.5z" />
    <glyph glyph-name="currency" unicode="&#xa4;" horiz-adv-x="1189" 
d="M1055 975q0 -158 -99 -285l101 -100l-78 -76l-98 100q-125 -98 -285 -98t-285 98l-100 -100l-78 76l103 100q-99 127 -99 285t99 285l-103 100l78 76l100 -101q127 99 285 99t285 -99l98 101l78 -76l-101 -100q99 -127 99 -285zM596 614q148 0 253 104.5t105 256.5
q0 151 -105.5 255.5t-252.5 104.5q-149 0 -253.5 -104.5t-104.5 -255.5q0 -153 104.5 -257t253.5 -104z" />
    <glyph glyph-name="yen" unicode="&#xa5;" horiz-adv-x="1222" 
d="M1112 1397l-424 -709v-2h182q29 0 29 -29v-55q0 -29 -29 -29h-182v-84h182q29 0 29 -28v-55q0 -29 -29 -29h-182v-348q0 -29 -29 -29h-96q-28 0 -28 29v348h-181q-28 0 -28 29v55q0 28 28 28h181v84h-181q-28 0 -28 29v55q0 29 28 29h181v2l-424 709q-10 15 -5 26t23 11
h107q22 0 34 -21l340 -579l342 579q12 21 35 21h107q18 0 23 -11t-5 -26z" />
    <glyph glyph-name="brokenbar" unicode="&#xa6;" horiz-adv-x="503" 
d="M205 1004q-29 0 -29 28v578q0 28 29 28h96q29 0 29 -28v-578q0 -28 -29 -28h-96zM205 -389q-29 0 -29 29v577q0 29 29 29h96q29 0 29 -29v-577q0 -29 -29 -29h-96z" />
    <glyph glyph-name="section" unicode="&#xa7;" horiz-adv-x="921" 
d="M662 451q141 -84 141 -234q0 -133 -97 -209t-243 -76q-111 0 -196.5 41t-139.5 103q-23 25 -2 55l25 39q19 28 55 0q119 -111 254 -111q90 0 144 41.5t54 112.5q0 114 -161 178l-127 51q-50 20 -87.5 42.5t-72 54.5t-52.5 76t-18 98q0 83 44.5 144t121.5 93
q-160 87 -160 238q0 121 92 193.5t224 72.5q89 0 167.5 -35.5t135.5 -101.5q18 -21 -2 -45l-33 -37q-23 -26 -49 0q-94 94 -215 94q-74 0 -125 -34.5t-51 -102.5q0 -66 39.5 -101t120.5 -69l118 -49q55 -22 94 -44.5t75 -55.5t54.5 -78t18.5 -101q0 -84 -39.5 -146
t-107.5 -97zM285 717q0 -68 38.5 -103t118.5 -67l25 -10q90 0 143.5 40t53.5 111q0 83 -89 141q-58 25 -116 25q-74 0 -124 -34.5t-50 -102.5z" />
    <glyph glyph-name="dieresis" unicode="&#xa8;" horiz-adv-x="608" 
d="M119 1272q-37 0 -62.5 25.5t-25.5 60.5t25.5 60.5t62.5 25.5q35 0 61.5 -25.5t26.5 -60.5t-26.5 -60.5t-61.5 -25.5zM489 1272q-35 0 -61.5 25.5t-26.5 60.5t26.5 60.5t61.5 25.5q36 0 62.5 -25.5t26.5 -60.5t-26.5 -60.5t-62.5 -25.5z" />
    <glyph glyph-name="copyright" unicode="&#xa9;" horiz-adv-x="1431" 
d="M717 279q-160 0 -294 78t-211 212.5t-77 294.5t77 294.5t211 213t294 78.5t294 -78.5t210.5 -213t76.5 -294.5q0 -120 -45.5 -228t-122.5 -186.5t-185 -124.5t-228 -46zM717 385q200 0 336.5 139.5t136.5 339.5t-136.5 339.5t-336.5 139.5t-337.5 -139.5t-137.5 -339.5
t137.5 -339.5t337.5 -139.5zM727 535q-139 0 -232.5 94.5t-93.5 234.5q0 142 93 237t233 95q148 0 238 -104q15 -14 0 -29l-35 -35q-16 -16 -33 2q-70 70 -164 70q-101 0 -165 -66t-64 -170q0 -103 64 -168t165 -65q95 0 164 69q17 18 33 2l35 -34q15 -14 0 -29
q-90 -104 -238 -104z" />
    <glyph glyph-name="ordfeminine" unicode="&#xaa;" horiz-adv-x="956" 
d="M750 1434h102v-736h-102l-11 131q-105 -131 -278 -131q-155 0 -256 106.5t-101 266.5t101 266.5t256 106.5q173 0 278 -131zM475 809q114 0 190 74t76 188t-76 188t-190 74q-112 0 -185 -74t-73 -188t73 -188t185 -74z" />
    <glyph glyph-name="guillemotleft" unicode="&#xab;" horiz-adv-x="784" 
d="M371 326q0 -12 -10 -16.5t-19 1.5l-223 178q-17 14 -17 33v101q0 16 17 30l223 178q9 8 19 3.5t10 -17.5v-80q0 -18 -17 -32l-170 -134l170 -131q17 -14 17 -32v-82zM682 326q0 -12 -10 -16.5t-19 1.5l-223 178q-16 13 -16 33v101q0 17 16 30l223 178q9 8 19 3.5
t10 -17.5v-80q0 -19 -16 -32l-170 -134l170 -131q16 -13 16 -32v-82z" />
    <glyph glyph-name="logicalnot" unicode="&#xac;" horiz-adv-x="1030" 
d="M788 305q-28 0 -28 29v158h-608q-29 0 -29 28v70q0 28 29 28h727q28 0 28 -28v-256q0 -29 -28 -29h-91z" />
    <glyph glyph-name="uni00AD" unicode="&#xad;" horiz-adv-x="890" 
d="M752 643q26 0 26 -27v-75q0 -27 -26 -27h-613q-26 0 -26 27v75q0 27 26 27h613z" />
    <glyph glyph-name="registered" unicode="&#xae;" horiz-adv-x="1431" 
d="M717 1450q160 0 294 -78.5t210.5 -213t76.5 -294.5q0 -120 -45.5 -228t-122.5 -186.5t-185 -124.5t-228 -46q-160 0 -294 78t-211 212.5t-77 294.5t77 294.5t211 213t294 78.5zM717 385q201 0 337 139t136 340t-136 340t-337 139t-338 -139t-137 -340t137 -340t338 -139z
M823 776l176 -186q8 -9 4.5 -17t-16.5 -8h-76q-12 0 -22 13l-180 194h-127v-188q0 -8 -6 -13.5t-13 -5.5h-61q-8 0 -13.5 5.5t-5.5 13.5v561q0 7 5.5 12.5t13.5 5.5h266q106 0 167.5 -53t61.5 -145q0 -75 -46 -125.5t-128 -63.5zM582 1073v-211h192q61 0 91 29t30 74
q0 108 -121 108h-192z" />
    <glyph glyph-name="macron" unicode="&#xaf;" horiz-adv-x="677" 
d="M618 1434q29 0 29 -29v-66q0 -28 -29 -28h-559q-28 0 -28 28v66q0 29 28 29h559z" />
    <glyph glyph-name="degree" unicode="&#xb0;" horiz-adv-x="843" 
d="M422 872q-124 0 -211.5 86t-87.5 211t87.5 211t211.5 86t211.5 -86t87.5 -211t-87.5 -211t-211.5 -86zM422 979q79 0 133.5 53.5t54.5 136.5t-54.5 137t-133.5 54t-134 -54t-55 -137t55 -136.5t134 -53.5z" />
    <glyph glyph-name="plusminus" unicode="&#xb1;" horiz-adv-x="882" 
d="M721 621q29 0 29 -29v-70q0 -28 -29 -28h-215v-218q0 -28 -29 -28h-69q-29 0 -29 28v218h-217q-29 0 -29 28v70q0 29 29 29h217v215q0 28 29 28h69q29 0 29 -28v-215h215zM723 100q27 0 27 -26v-47q0 -27 -27 -27h-563q-27 0 -27 27v47q0 26 27 26h563z" />
    <glyph glyph-name="uni00B2" unicode="&#xb2;" horiz-adv-x="509" 
d="M254 1442q82 0 127 -44.5t45 -109.5q0 -13 -1.5 -25t-7.5 -25t-9.5 -22.5t-15 -24t-17 -22t-22 -24.5t-23.5 -24.5t-28.5 -28.5t-29.5 -29l-96 -94h254v-68h-344v68l139 139q12 12 35.5 35t31 31t22 24t19 23.5t11.5 20t8.5 23t1.5 23.5q0 44 -28 67t-72 23t-72 -25
t-28 -77v-29h-72v29q0 76 45.5 121t126.5 45z" />
    <glyph glyph-name="uni00B3" unicode="&#xb3;" horiz-adv-x="532" 
d="M262 1440q81 0 123.5 -39t42.5 -101q0 -75 -80 -114q103 -33 103 -135q0 -71 -50.5 -114.5t-134.5 -43.5q-93 0 -138.5 48t-45.5 122h70q0 -47 28.5 -78t85.5 -31q49 0 81 25.5t32 71.5q0 56 -39.5 77t-114.5 21v57q66 0 99.5 25t33.5 67q0 39 -26.5 58.5t-69.5 19.5
q-100 0 -100 -102h-68q-2 76 40.5 121t127.5 45z" />
    <glyph glyph-name="acute" unicode="&#xb4;" horiz-adv-x="321" 
d="M268 1434q33 0 19 -33l-113 -236q-8 -24 -31 -24h-90q-32 0 -18 33l110 235q11 25 33 25h90z" />
    <glyph glyph-name="uni00B5" unicode="&#xb5;" horiz-adv-x="1155" 
d="M975 1004q26 0 26 -29v-946q0 -29 -26 -29h-88q-29 0 -29 31l-4 133q-47 -85 -129 -137t-201 -52q-130 0 -221 66v-401q0 -29 -29 -29h-90q-28 0 -28 29v1335q0 29 26 29h94q27 0 27 -29v-576q0 -135 67 -210.5t191 -75.5q127 0 210 77.5t83 208.5v576q0 29 25 29h96z
" />
    <glyph glyph-name="paragraph" unicode="&#xb6;" horiz-adv-x="1531" 
d="M997 0h-96q-29 0 -29 29v514h-266q-226 0 -348.5 122t-122.5 322q0 201 122.5 324t348.5 123h391q29 0 29 -29v-1376q0 -29 -29 -29zM1231 0q-29 0 -29 29v1376q0 29 29 29h96q29 0 29 -29v-1376q0 -29 -29 -29h-96zM872 680v616h-254q-72 0 -131 -17t-105 -52t-71.5 -96
t-25.5 -144q0 -159 91 -233t242 -74h254z" />
    <glyph glyph-name="periodcentered" unicode="&#xb7;" horiz-adv-x="415" 
d="M209 487q-44 0 -75.5 30.5t-31.5 74.5q0 43 31.5 74.5t75.5 31.5q43 0 73.5 -31.5t30.5 -74.5q0 -44 -30.5 -74.5t-73.5 -30.5z" />
    <glyph glyph-name="cedilla" unicode="&#xb8;" horiz-adv-x="387" 
d="M178 -82q75 -3 126.5 -45.5t51.5 -114.5q0 -59 -27.5 -101.5t-71.5 -62t-99 -27.5t-109 1q-18 3 -18 22v52q0 20 22 20q187 -13 187 84q0 54 -55 74.5t-130 -4.5q-24 -7 -24 14v47q0 12 10 25l90 98h127z" />
    <glyph glyph-name="uni00B9" unicode="&#xb9;" horiz-adv-x="348" 
d="M215 1436v-535h-74v467h-59v68h133z" />
    <glyph glyph-name="ordmasculine" unicode="&#xba;" horiz-adv-x="958" 
d="M479 698q-158 0 -266.5 107.5t-108.5 265.5t108.5 265.5t266.5 107.5t266.5 -107.5t108.5 -265.5t-108.5 -265.5t-266.5 -107.5zM479 809q110 0 186 76t76 186t-76 186t-186 76t-186 -76t-76 -186t76 -186t186 -76z" />
    <glyph glyph-name="guillemotright" unicode="&#xbb;" horiz-adv-x="784" 
d="M102 326v82q0 18 17 32l170 131l-170 134q-17 14 -17 32v80q0 13 10 17.5t19 -3.5l223 -178q17 -14 17 -30v-101q0 -19 -17 -33l-223 -178q-9 -6 -19 -1.5t-10 16.5zM414 326v82q0 19 16 32l170 131l-170 134q-16 13 -16 32v80q0 13 9 17.5t17 -3.5l226 -178
q16 -13 16 -30v-101q0 -20 -16 -33l-226 -178q-8 -6 -17 -1.5t-9 16.5z" />
    <glyph glyph-name="onequarter" unicode="&#xbc;" horiz-adv-x="1204" 
d="M213 1436v-535h-72v467h-59v68h131zM1065 1434l-875 -1434h-84l875 1434h84zM1057 535v-342h55v-70h-55v-123h-72v123h-278l278 412h72zM985 430l-158 -237h158v237z" />
    <glyph glyph-name="onehalf" unicode="&#xbd;" horiz-adv-x="1187" 
d="M213 1436v-535h-72v467h-59v68h131zM1065 1434l-875 -1434h-84l875 1434h84zM920 541q82 0 128 -44.5t46 -109.5q0 -12 -2 -23.5t-4.5 -21t-9.5 -22t-11 -20t-15.5 -21t-16.5 -20t-21 -23t-22.5 -22.5t-26.5 -25.5t-27 -26.5l-96 -94h254v-68h-344v68l139 139
q10 9 26.5 25.5t23.5 23t19 19t17 18t13.5 15.5t11.5 16t7.5 14.5t6 15.5t3 15.5t1.5 17.5q0 44 -28 67t-72 23t-72.5 -25t-28.5 -77v-29h-71v29q0 76 45.5 121t126.5 45z" />
    <glyph glyph-name="threequarters" unicode="&#xbe;" horiz-adv-x="1236" 
d="M262 1440q81 0 123.5 -39t42.5 -101q0 -75 -80 -114q103 -33 103 -135q0 -71 -50.5 -114.5t-134.5 -43.5q-93 0 -138.5 48t-45.5 122h70q0 -47 28.5 -78t85.5 -31q49 0 81 25.5t32 71.5q0 56 -39.5 77t-114.5 21v57q66 0 99.5 25t33.5 67q0 39 -26.5 58.5t-69.5 19.5
q-100 0 -100 -102h-68q-2 76 40.5 121t127.5 45zM1128 1434l-874 -1434h-84l874 1434h84zM1100 535v-342h55v-70h-55v-123h-72v123h-278l278 412h72zM1028 430l-158 -237h158v237z" />
    <glyph glyph-name="questiondown" unicode="&#xbf;" horiz-adv-x="923" 
d="M461 1092q43 0 74.5 -31t31.5 -76q0 -43 -31.5 -73.5t-74.5 -30.5t-75 31t-32 73q0 45 32 76t75 31zM502 694q26 0 26 -30v-76q0 -69 -17 -128t-44 -100.5t-59.5 -78t-65.5 -69.5t-60 -67t-44 -78t-17 -94q0 -105 62.5 -160t162.5 -55q182 0 261 187q12 23 47 2l45 -29
q30 -17 20 -45q-17 -48 -48 -91.5t-77 -82t-113 -61.5t-145 -23q-158 0 -260 89t-102 245q0 63 17.5 117t45 94t61 77.5t67.5 74.5t62 76t46.5 91.5t19.5 112.5l2 72q0 30 27 30h80z" />
    <glyph glyph-name="Agrave" unicode="&#xc0;" horiz-adv-x="1394" 
d="M614 1595l-112 236q-14 33 18 33h92q23 0 31 -25l111 -235q14 -33 -19 -33h-88q-22 0 -33 24zM1288 35q6 -15 0.5 -25t-22.5 -10h-103q-25 0 -33 25l-104 297h-655l-105 -297q-8 -25 -35 -25h-100q-17 0 -22.5 10t0.5 25l495 1374q9 25 37 25h113q28 0 37 -25zM420 459
h557l-279 792z" />
    <glyph glyph-name="Aacute" unicode="&#xc1;" horiz-adv-x="1394" 
d="M662 1571q-33 0 -19 33l111 235q11 25 32 25h91q32 0 18 -33l-113 -236q-8 -24 -30 -24h-90zM1288 35q6 -15 0.5 -25t-22.5 -10h-103q-25 0 -33 25l-104 297h-655l-105 -297q-8 -25 -35 -25h-100q-17 0 -22.5 10t0.5 25l495 1374q9 25 37 25h113q28 0 37 -25zM420 459
h557l-279 792z" />
    <glyph glyph-name="Acircumflex" unicode="&#xc2;" horiz-adv-x="1394" 
d="M453 1606q-13 0 -18 9.5t3 18.5l176 213q14 17 33 17h103q18 0 32 -17l176 -213q8 -9 3 -18.5t-17 -9.5h-82q-20 0 -33 16l-131 164l-133 -164q-13 -16 -33 -16h-79zM1288 35q6 -15 0.5 -25t-22.5 -10h-103q-25 0 -33 25l-104 297h-655l-105 -297q-8 -25 -35 -25h-100
q-17 0 -22.5 10t0.5 25l495 1374q9 25 37 25h113q28 0 37 -25zM420 459h557l-279 792z" />
    <glyph glyph-name="Atilde" unicode="&#xc3;" horiz-adv-x="1394" 
d="M412 1726q-22 0 -19 25q7 71 54.5 110.5t115.5 39.5q47 0 88.5 -21t66.5 -46t60 -46t70 -21q65 0 86 62q6 18 22 18h31q21 0 21 -20q-7 -73 -54 -112.5t-110 -39.5q-49 0 -92 20.5t-69 45t-60.5 45t-69.5 20.5q-67 0 -88 -61q-6 -19 -23 -19h-30zM1288 35q6 -15 0.5 -25
t-22.5 -10h-103q-25 0 -33 25l-104 297h-655l-105 -297q-8 -25 -35 -25h-100q-17 0 -22.5 10t0.5 25l495 1374q9 25 37 25h113q28 0 37 -25zM420 459h557l-279 792z" />
    <glyph glyph-name="Adieresis" unicode="&#xc4;" horiz-adv-x="1394" 
d="M514 1702q-37 0 -62.5 25.5t-25.5 60.5t25.5 60.5t62.5 25.5q35 0 61.5 -25.5t26.5 -60.5t-26.5 -60.5t-61.5 -25.5zM885 1702q-35 0 -61.5 25.5t-26.5 60.5t26.5 60.5t61.5 25.5t61.5 -25.5t26.5 -60.5t-26.5 -60.5t-61.5 -25.5zM1288 35q6 -15 0.5 -25t-22.5 -10h-103
q-25 0 -33 25l-104 297h-655l-105 -297q-8 -25 -35 -25h-100q-17 0 -22.5 10t0.5 25l495 1374q9 25 37 25h113q28 0 37 -25zM420 459h557l-279 792z" />
    <glyph glyph-name="Aring" unicode="&#xc5;" horiz-adv-x="1394" 
d="M698 1581q-69 0 -116 46t-47 114q0 69 47 114.5t116 45.5t116.5 -45.5t47.5 -114.5q0 -67 -47.5 -113.5t-116.5 -46.5zM698 1798q-25 0 -41 -16t-16 -41t16 -41.5t41 -16.5t41.5 16.5t16.5 41.5t-16.5 41t-41.5 16zM1288 35q6 -15 0.5 -25t-22.5 -10h-103q-25 0 -33 25
l-104 297h-655l-105 -297q-8 -25 -35 -25h-100q-17 0 -22.5 10t0.5 25l495 1374q9 25 37 25h113q28 0 37 -25zM420 459h557l-279 792z" />
    <glyph glyph-name="AE" unicode="&#xc6;" horiz-adv-x="1794" 
d="M1610 137q28 0 28 -28v-80q0 -29 -28 -29h-688q-29 0 -29 29v325h-463l-162 -329q-11 -25 -35 -25h-102q-17 0 -23.5 10t1.5 25l690 1374q13 25 37 25h772q28 0 28 -29v-80q0 -29 -28 -29h-561v-487h532q29 0 29 -29v-80q0 -28 -29 -28h-532v-535h563zM498 492h395v808z
" />
    <glyph glyph-name="Ccedilla" unicode="&#xc7;" horiz-adv-x="1486" 
d="M897 -27l-55 -55q75 -3 126.5 -45.5t51.5 -114.5q0 -59 -27.5 -101.5t-71.5 -62t-99 -27.5t-109 1q-19 3 -19 22v52q0 20 23 20q186 -13 186 84q0 54 -54.5 74.5t-129.5 -4.5q-25 -7 -25 14v47q0 10 11 25l69 75q-186 20 -332 121.5t-226.5 261.5t-80.5 351
q0 205 92.5 374t259.5 267t375 98q277 0 484 -184q25 -25 6 -49l-58 -64q-20 -20 -45 0q-166 147 -383 147q-163 0 -294.5 -76t-206 -210.5t-74.5 -302.5t74.5 -302.5t206 -210t294.5 -75.5q217 0 383 147q24 21 43 2l60 -65q20 -21 -6 -47q-192 -176 -449 -187z" />
    <glyph glyph-name="Egrave" unicode="&#xc8;" horiz-adv-x="1077" 
d="M381 1864h92q23 0 31 -25l110 -235q14 -33 -18 -33h-88q-22 0 -33 24l-113 236q-14 33 19 33zM205 0q-29 0 -29 29v1376q0 29 29 29h686q29 0 29 -29v-80q0 -29 -29 -29h-561v-487h532q29 0 29 -29v-80q0 -28 -29 -28h-532v-535h563q29 0 29 -28v-80q0 -29 -29 -29h-688z
" />
    <glyph glyph-name="Eacute" unicode="&#xc9;" horiz-adv-x="1077" 
d="M737 1864q33 0 19 -33l-113 -236q-8 -24 -31 -24h-90q-32 0 -18 33l110 235q11 25 33 25h90zM205 0q-29 0 -29 29v1376q0 29 29 29h686q29 0 29 -29v-80q0 -29 -29 -29h-561v-487h532q29 0 29 -29v-80q0 -28 -29 -28h-532v-535h563q29 0 29 -28v-80q0 -29 -29 -29h-688z
" />
    <glyph glyph-name="Ecircumflex" unicode="&#xca;" horiz-adv-x="1077" 
d="M313 1606q-13 0 -17.5 9.5t3.5 18.5l176 213q14 17 33 17h102q19 0 33 -17l176 -213q7 -9 2.5 -18.5t-16.5 -9.5h-82q-20 0 -33 16l-131 164l-133 -164q-13 -16 -33 -16h-80zM205 0q-29 0 -29 29v1376q0 29 29 29h686q29 0 29 -29v-80q0 -29 -29 -29h-561v-487h532
q29 0 29 -29v-80q0 -28 -29 -28h-532v-535h563q29 0 29 -28v-80q0 -29 -29 -29h-688z" />
    <glyph glyph-name="Edieresis" unicode="&#xcb;" horiz-adv-x="1077" 
d="M375 1702q-37 0 -62.5 25.5t-25.5 60.5t25.5 60.5t62.5 25.5q35 0 61.5 -25.5t26.5 -60.5t-26.5 -60.5t-61.5 -25.5zM745 1702q-35 0 -61.5 25.5t-26.5 60.5t26.5 60.5t61.5 25.5q36 0 62.5 -25.5t26.5 -60.5t-26.5 -60.5t-62.5 -25.5zM205 0q-29 0 -29 29v1376
q0 29 29 29h686q29 0 29 -29v-80q0 -29 -29 -29h-561v-487h532q29 0 29 -29v-80q0 -28 -29 -28h-532v-535h563q29 0 29 -28v-80q0 -29 -29 -29h-688z" />
    <glyph glyph-name="Igrave" unicode="&#xcc;" horiz-adv-x="503" 
d="M76 1864h90q22 0 33 -25l110 -235q14 -33 -18 -33h-88q-22 0 -33 24l-113 236q-14 33 19 33zM205 0q-29 0 -29 29v1376q0 29 29 29h96q29 0 29 -29v-1376q0 -29 -29 -29h-96z" />
    <glyph glyph-name="Iacute" unicode="&#xcd;" horiz-adv-x="503" 
d="M432 1864q33 0 19 -33l-113 -236q-8 -24 -31 -24h-90q-32 0 -18 33l110 235q11 25 33 25h90zM205 0q-29 0 -29 29v1376q0 29 29 29h96q29 0 29 -29v-1376q0 -29 -29 -29h-96z" />
    <glyph glyph-name="Icircumflex" unicode="&#xce;" horiz-adv-x="503" 
d="M6 1606q-13 0 -17.5 9.5t3.5 18.5l176 213q14 17 33 17h102q19 0 33 -17l176 -213q8 -9 3 -18.5t-17 -9.5h-82q-20 0 -33 16l-131 164l-133 -164q-13 -16 -33 -16h-80zM205 0q-29 0 -29 29v1376q0 29 29 29h96q29 0 29 -29v-1376q0 -29 -29 -29h-96z" />
    <glyph glyph-name="Idieresis" unicode="&#xcf;" horiz-adv-x="503" 
d="M68 1702q-37 0 -62.5 25.5t-25.5 60.5t25.5 60.5t62.5 25.5q35 0 61.5 -25.5t26.5 -60.5t-26.5 -60.5t-61.5 -25.5zM438 1702q-35 0 -61.5 25.5t-26.5 60.5t26.5 60.5t61.5 25.5t61.5 -25.5t26.5 -60.5t-26.5 -60.5t-61.5 -25.5zM205 0q-29 0 -29 29v1376q0 29 29 29h96
q29 0 29 -29v-1376q0 -29 -29 -29h-96z" />
    <glyph glyph-name="Eth" unicode="&#xd0;" horiz-adv-x="1386" 
d="M532 1434q183 0 324 -54t229 -151t132.5 -226.5t44.5 -285.5t-44.5 -285.5t-132.5 -226.5t-229 -151t-324 -54h-311q-28 0 -28 29v626h-113q-29 0 -29 29v66q0 28 29 28h113v627q0 29 28 29h311zM530 137q291 0 433.5 151.5t142.5 428.5t-142.5 428t-433.5 151h-184v-518
h293q29 0 29 -28v-66q0 -29 -29 -29h-293v-518h184z" />
    <glyph glyph-name="Ntilde" unicode="&#xd1;" horiz-adv-x="1370" 
d="M399 1726q-21 0 -18 25q7 71 54.5 110.5t115.5 39.5q47 0 88.5 -21t66.5 -46t60 -46t70 -21q65 0 86 62q6 18 22 18h31q20 0 20 -20q-7 -73 -54 -112.5t-110 -39.5q-49 0 -92 20.5t-68.5 45t-60 45t-69.5 20.5q-67 0 -88 -61q-6 -19 -23 -19h-31zM1165 1434q29 0 29 -29
v-1376q0 -29 -29 -29h-131q-26 0 -37 20l-667 1194v-1185q0 -29 -29 -29h-96q-29 0 -29 29v1376q0 29 29 29h131q25 0 37 -21l667 -1194v1186q0 29 29 29h96z" />
    <glyph glyph-name="Ograve" unicode="&#xd2;" horiz-adv-x="1734" 
d="M690 1864h92q23 0 31 -25l111 -235q14 -33 -19 -33h-88q-22 0 -33 24l-112 236q-14 33 18 33zM868 -27q-152 0 -288 57.5t-233.5 156t-154.5 235t-57 289.5t57 290.5t154.5 235.5t233.5 155.5t288 57.5q203 0 371.5 -97.5t265.5 -267t97 -374.5q0 -204 -97 -373.5
t-265.5 -267t-371.5 -97.5zM868 123q162 0 294.5 76.5t208 211.5t75.5 300q0 125 -44.5 234.5t-121 187t-184 122.5t-228.5 45q-122 0 -229 -45t-183.5 -122.5t-120.5 -187t-44 -234.5q0 -252 165 -420t412 -168z" />
    <glyph glyph-name="Oacute" unicode="&#xd3;" horiz-adv-x="1734" 
d="M1047 1864q32 0 18 -33l-113 -236q-8 -24 -30 -24h-91q-32 0 -18 33l111 235q11 25 32 25h91zM868 -27q-152 0 -288 57.5t-233.5 156t-154.5 235t-57 289.5t57 290.5t154.5 235.5t233.5 155.5t288 57.5q203 0 371.5 -97.5t265.5 -267t97 -374.5q0 -204 -97 -373.5
t-265.5 -267t-371.5 -97.5zM868 123q162 0 294.5 76.5t208 211.5t75.5 300q0 125 -44.5 234.5t-121 187t-184 122.5t-228.5 45q-122 0 -229 -45t-183.5 -122.5t-120.5 -187t-44 -234.5q0 -252 165 -420t412 -168z" />
    <glyph glyph-name="Ocircumflex" unicode="&#xd4;" horiz-adv-x="1734" 
d="M623 1606q-13 0 -18 9.5t3 18.5l176 213q14 17 33 17h103q18 0 32 -17l176 -213q8 -9 3 -18.5t-17 -9.5h-82q-20 0 -33 16l-131 164l-133 -164q-13 -16 -33 -16h-79zM868 -27q-152 0 -288 57.5t-233.5 156t-154.5 235t-57 289.5t57 290.5t154.5 235.5t233.5 155.5
t288 57.5q203 0 371.5 -97.5t265.5 -267t97 -374.5q0 -204 -97 -373.5t-265.5 -267t-371.5 -97.5zM868 123q162 0 294.5 76.5t208 211.5t75.5 300q0 125 -44.5 234.5t-121 187t-184 122.5t-228.5 45q-122 0 -229 -45t-183.5 -122.5t-120.5 -187t-44 -234.5q0 -252 165 -420
t412 -168z" />
    <glyph glyph-name="Otilde" unicode="&#xd5;" horiz-adv-x="1734" 
d="M733 1901q47 0 88.5 -21t66.5 -46t60 -46t70 -21q65 0 86 62q6 18 22 18h31q21 0 21 -20q-7 -73 -54 -112.5t-110 -39.5q-49 0 -92 20.5t-69 45t-60.5 45t-69.5 20.5q-67 0 -88 -61q-6 -19 -23 -19h-30q-22 0 -19 25q7 71 54.5 110.5t115.5 39.5zM868 -27
q-152 0 -288 57.5t-233.5 156t-154.5 235t-57 289.5t57 290.5t154.5 235.5t233.5 155.5t288 57.5q203 0 371.5 -97.5t265.5 -267t97 -374.5q0 -204 -97 -373.5t-265.5 -267t-371.5 -97.5zM868 123q162 0 294.5 76.5t208 211.5t75.5 300q0 125 -44.5 234.5t-121 187
t-184 122.5t-228.5 45q-122 0 -229 -45t-183.5 -122.5t-120.5 -187t-44 -234.5q0 -252 165 -420t412 -168z" />
    <glyph glyph-name="Odieresis" unicode="&#xd6;" horiz-adv-x="1734" 
d="M684 1702q-37 0 -62.5 25.5t-25.5 60.5t25.5 60.5t62.5 25.5q35 0 61.5 -25.5t26.5 -60.5t-26.5 -60.5t-61.5 -25.5zM1055 1702q-35 0 -61.5 25.5t-26.5 60.5t26.5 60.5t61.5 25.5t61.5 -25.5t26.5 -60.5t-26.5 -60.5t-61.5 -25.5zM868 -27q-152 0 -288 57.5t-233.5 156
t-154.5 235t-57 289.5t57 290.5t154.5 235.5t233.5 155.5t288 57.5q203 0 371.5 -97.5t265.5 -267t97 -374.5q0 -204 -97 -373.5t-265.5 -267t-371.5 -97.5zM868 123q162 0 294.5 76.5t208 211.5t75.5 300q0 125 -44.5 234.5t-121 187t-184 122.5t-228.5 45q-122 0 -229 -45
t-183.5 -122.5t-120.5 -187t-44 -234.5q0 -252 165 -420t412 -168z" />
    <glyph glyph-name="multiply" unicode="&#xd7;" horiz-adv-x="770" 
d="M477 580l152 -152q19 -20 0 -39l-49 -51q-22 -19 -41 0l-152 151l-154 -151q-18 -22 -40 0l-50 49q-19 19 0 41l154 152l-154 153q-19 19 0 41l50 49q22 18 40 0l154 -153l152 151q19 22 41 0l49 -49q19 -19 0 -41z" />
    <glyph glyph-name="Oslash" unicode="&#xd8;" horiz-adv-x="1734" 
d="M1221 1362q175 -94 278 -266.5t103 -384.5q0 -204 -97 -373.5t-265.5 -267t-371.5 -97.5q-136 0 -252 43l-43 -96q-11 -22 -30 -22h-64q-15 0 -20 9.5t2 26.5l57 125q-176 95 -279.5 268t-103.5 384q0 153 57 290.5t154.5 235.5t233.5 155.5t288 57.5q136 0 252 -43
l43 96q11 23 31 23h66q15 0 20 -10t-2 -27zM291 711q0 -168 77 -303.5t210 -210.5l481 1073q-88 30 -191 30q-122 0 -229 -45t-183.5 -122.5t-120.5 -187t-44 -234.5zM868 123q162 0 294.5 76.5t208 211.5t75.5 300q0 168 -77 303.5t-210 210.5l-481 -1071q91 -31 190 -31z
" />
    <glyph glyph-name="Ugrave" unicode="&#xd9;" horiz-adv-x="1288" 
d="M467 1864h92q23 0 31 -25l110 -235q14 -33 -18 -33h-88q-22 0 -33 24l-112 236q-14 33 18 33zM643 -27q-216 0 -346.5 131.5t-130.5 366.5v934q0 29 29 29h96q28 0 28 -29v-916q0 -182 88 -274t236 -92q149 0 237.5 92t88.5 274v916q0 29 28 29h97q28 0 28 -29v-934
q0 -236 -130 -367t-349 -131z" />
    <glyph glyph-name="Uacute" unicode="&#xda;" horiz-adv-x="1288" 
d="M823 1864q33 0 19 -33l-113 -236q-8 -24 -31 -24h-90q-32 0 -18 33l110 235q11 25 33 25h90zM643 -27q-216 0 -346.5 131.5t-130.5 366.5v934q0 29 29 29h96q28 0 28 -29v-916q0 -182 88 -274t236 -92q149 0 237.5 92t88.5 274v916q0 29 28 29h97q28 0 28 -29v-934
q0 -236 -130 -367t-349 -131z" />
    <glyph glyph-name="Ucircumflex" unicode="&#xdb;" horiz-adv-x="1288" 
d="M399 1606q-13 0 -17.5 9.5t3.5 18.5l176 213q14 17 33 17h102q19 0 33 -17l176 -213q7 -9 2.5 -18.5t-16.5 -9.5h-82q-20 0 -33 16l-131 164l-133 -164q-13 -16 -33 -16h-80zM643 -27q-216 0 -346.5 131.5t-130.5 366.5v934q0 29 29 29h96q28 0 28 -29v-916
q0 -182 88 -274t236 -92q149 0 237.5 92t88.5 274v916q0 29 28 29h97q28 0 28 -29v-934q0 -236 -130 -367t-349 -131z" />
    <glyph glyph-name="Udieresis" unicode="&#xdc;" horiz-adv-x="1288" 
d="M459 1702q-37 0 -62.5 25.5t-25.5 60.5t25.5 60.5t62.5 25.5q35 0 61.5 -25.5t26.5 -60.5t-26.5 -60.5t-61.5 -25.5zM829 1702q-35 0 -61.5 25.5t-26.5 60.5t26.5 60.5t61.5 25.5q36 0 62.5 -25.5t26.5 -60.5t-26.5 -60.5t-62.5 -25.5zM643 -27q-216 0 -346.5 131.5
t-130.5 366.5v934q0 29 29 29h96q28 0 28 -29v-916q0 -182 88 -274t236 -92q149 0 237.5 92t88.5 274v916q0 29 28 29h97q28 0 28 -29v-934q0 -236 -130 -367t-349 -131z" />
    <glyph glyph-name="Yacute" unicode="&#xdd;" horiz-adv-x="1222" 
d="M575 1571q-32 0 -18 33l111 235q11 25 32 25h91q32 0 18 -33l-113 -236q-8 -24 -30 -24h-91zM1094 1434q18 0 23 -11t-5 -26l-424 -709v-659q0 -29 -29 -29h-96q-28 0 -28 29v659l-424 709q-10 15 -5 26t23 11h107q22 0 34 -21l340 -579l342 579q12 21 35 21h107z" />
    <glyph glyph-name="Thorn" unicode="&#xde;" horiz-adv-x="1165" 
d="M580 1159q227 0 349 -122t122 -320t-122 -320.5t-349 -122.5h-250v-245q0 -29 -29 -29h-96q-29 0 -29 29v1376q0 29 29 29h96q29 0 29 -29v-246h250zM567 416q153 0 243.5 72.5t90.5 228.5t-90.5 228.5t-243.5 72.5h-237v-602h237z" />
    <glyph glyph-name="germandbls" unicode="&#xdf;" horiz-adv-x="1183" 
d="M772 788q151 -26 230 -125.5t79 -267.5q0 -204 -116 -299.5t-371 -95.5h-127q-27 0 -27 29v65q0 29 27 29h127q181 0 262.5 65.5t81.5 219.5q0 155 -81.5 228t-264.5 73h-125q-27 0 -27 28v66q0 28 27 28h104q138 0 211.5 65t73.5 185q0 114 -68 174t-200 60
q-147 0 -205.5 -63.5t-58.5 -180.5v-1042q0 -29 -27 -29h-94q-27 0 -27 29v1050q0 172 100 271.5t312 99.5q199 0 305 -94.5t106 -257.5q0 -117 -55.5 -198t-171.5 -112z" />
    <glyph glyph-name="agrave" unicode="&#xe0;" 
d="M553 1165l-113 236q-14 33 19 33h92q23 0 31 -25l110 -235q14 -33 -18 -33h-88q-22 0 -33 24zM1102 1004q26 0 26 -29v-946q0 -29 -26 -29h-88q-27 0 -27 29l-2 166q-57 -104 -156 -162t-231 -58q-218 0 -356 149.5t-138 377.5q0 148 62 268t175 189t257 69
q132 0 231 -59t156 -164l2 170q0 29 27 29h88zM618 113q162 0 263.5 106t101.5 279q0 174 -102 283.5t-263 109.5q-162 0 -266 -108.5t-104 -280.5q0 -174 104 -281.5t266 -107.5z" />
    <glyph glyph-name="aacute" unicode="&#xe1;" 
d="M600 1141q-32 0 -18 33l110 235q11 25 33 25h90q33 0 19 -33l-113 -236q-8 -24 -31 -24h-90zM1102 1004q26 0 26 -29v-946q0 -29 -26 -29h-88q-27 0 -27 29l-2 166q-57 -104 -156 -162t-231 -58q-218 0 -356 149.5t-138 377.5q0 148 62 268t175 189t257 69q132 0 231 -59
t156 -164l2 170q0 29 27 29h88zM618 113q162 0 263.5 106t101.5 279q0 174 -102 283.5t-263 109.5q-162 0 -266 -108.5t-104 -280.5q0 -174 104 -281.5t266 -107.5z" />
    <glyph glyph-name="acircumflex" unicode="&#xe2;" 
d="M391 1176q-13 0 -17.5 9.5t3.5 18.5l176 213q14 17 33 17h102q19 0 33 -17l176 -213q7 -9 2.5 -18.5t-16.5 -9.5h-82q-20 0 -33 16l-131 164l-133 -164q-13 -16 -33 -16h-80zM1102 1004q26 0 26 -29v-946q0 -29 -26 -29h-88q-27 0 -27 29l-2 166q-57 -104 -156 -162
t-231 -58q-218 0 -356 149.5t-138 377.5q0 148 62 268t175 189t257 69q132 0 231 -59t156 -164l2 170q0 29 27 29h88zM618 113q162 0 263.5 106t101.5 279q0 174 -102 283.5t-263 109.5q-162 0 -266 -108.5t-104 -280.5q0 -174 104 -281.5t266 -107.5z" />
    <glyph glyph-name="atilde" unicode="&#xe3;" 
d="M350 1296q-21 0 -18 25q7 71 54 110t116 39q47 0 88 -21t66.5 -45.5t60 -45.5t69.5 -21q65 0 86 62q6 18 23 18h31q20 0 20 -20q-7 -73 -54 -112.5t-110 -39.5q-49 0 -92 20.5t-68.5 45t-60 45t-69.5 20.5q-68 0 -89 -61q-6 -19 -22 -19h-31zM1102 1004q26 0 26 -29v-946
q0 -29 -26 -29h-88q-27 0 -27 29l-2 166q-57 -104 -156 -162t-231 -58q-218 0 -356 149.5t-138 377.5q0 148 62 268t175 189t257 69q132 0 231 -59t156 -164l2 170q0 29 27 29h88zM618 113q162 0 263.5 106t101.5 279q0 174 -102 283.5t-263 109.5q-162 0 -266 -108.5
t-104 -280.5q0 -174 104 -281.5t266 -107.5z" />
    <glyph glyph-name="adieresis" unicode="&#xe4;" 
d="M451 1272q-37 0 -63 25.5t-26 60.5t26 60.5t63 25.5q35 0 61.5 -25.5t26.5 -60.5t-26.5 -60.5t-61.5 -25.5zM821 1272q-35 0 -61.5 25.5t-26.5 60.5t26.5 60.5t61.5 25.5t61.5 -25.5t26.5 -60.5t-26.5 -60.5t-61.5 -25.5zM1102 1004q26 0 26 -29v-946q0 -29 -26 -29h-88
q-27 0 -27 29l-2 166q-57 -104 -156 -162t-231 -58q-218 0 -356 149.5t-138 377.5q0 148 62 268t175 189t257 69q132 0 231 -59t156 -164l2 170q0 29 27 29h88zM618 113q162 0 263.5 106t101.5 279q0 174 -102 283.5t-263 109.5q-162 0 -266 -108.5t-104 -280.5
q0 -174 104 -281.5t266 -107.5z" />
    <glyph glyph-name="aring" unicode="&#xe5;" 
d="M635 1151q-69 0 -116.5 46.5t-47.5 113.5q0 69 47 114t117 45t117 -45t47 -114q0 -67 -47.5 -113.5t-116.5 -46.5zM635 1368q-25 0 -41 -16t-16 -41t16 -41.5t41 -16.5t41 16.5t16 41.5t-16 41t-41 16zM1102 1004q26 0 26 -29v-946q0 -29 -26 -29h-88q-27 0 -27 29
l-2 166q-57 -104 -156 -162t-231 -58q-218 0 -356 149.5t-138 377.5q0 148 62 268t175 189t257 69q132 0 231 -59t156 -164l2 170q0 29 27 29h88zM618 113q162 0 263.5 106t101.5 279q0 174 -102 283.5t-263 109.5q-162 0 -266 -108.5t-104 -280.5q0 -174 104 -281.5
t266 -107.5z" />
    <glyph glyph-name="ae" unicode="&#xe6;" horiz-adv-x="2062" 
d="M1958 553q0 -57 -15.5 -80.5t-58.5 -23.5h-756q14 -155 118.5 -252t281.5 -97q161 0 289 97q17 14 30 -2l35 -48q9 -15 6.5 -23t-14.5 -20q-135 -129 -358 -129q-168 0 -293 78t-187 211q-55 -134 -170 -211.5t-270 -77.5q-219 0 -355.5 149.5t-136.5 377.5q0 148 62 268
t175 189t257 69q126 0 225 -50t162 -140l2 137q0 29 27 29h69q27 0 27 -29v-113q68 78 164.5 122t212.5 44q109 0 199.5 -39.5t149 -106t90.5 -151.5t32 -178zM1487 897q-149 0 -247.5 -91t-111.5 -243h699q-5 149 -97 241.5t-243 92.5zM618 113q162 0 263.5 106t101.5 279
q0 174 -102 283.5t-263 109.5q-162 0 -266 -108.5t-104 -280.5q0 -174 104 -281.5t266 -107.5z" />
    <glyph glyph-name="ccedilla" unicode="&#xe7;" horiz-adv-x="1118" 
d="M1008 184q15 -15 -4 -41q-133 -159 -353 -168l-57 -57q75 -3 126.5 -45.5t51.5 -114.5q0 -59 -27.5 -101.5t-71.5 -62t-99 -27.5t-109 1q-19 3 -19 22v52q0 20 23 20q186 -13 186 84q0 54 -54.5 74.5t-129.5 -4.5q-25 -7 -25 14v47q0 10 11 25l75 82q-189 32 -308.5 175
t-119.5 343q0 225 150 375.5t373 150.5q235 0 374 -168q20 -26 5 -41l-54 -49q-22 -22 -47 2q-53 57 -117 88t-155 31q-167 0 -276 -109t-109 -280t109.5 -280t277.5 -109q163 0 270 116q27 27 49 4z" />
    <glyph glyph-name="egrave" unicode="&#xe8;" horiz-adv-x="1181" 
d="M508 1165l-113 236q-14 33 19 33h92q23 0 31 -25l110 -235q14 -33 -18 -33h-88q-22 0 -33 24zM1077 553q0 -58 -15 -81t-58 -23h-756q14 -155 118 -252t281 -97q161 0 289 97q18 14 31 -2l34 -48q9 -15 6.5 -23t-14.5 -20q-135 -129 -358 -129q-160 0 -282 72t-185.5 192
t-63.5 267t63 265.5t178.5 187.5t262.5 69q108 0 198 -39.5t148.5 -106t90.5 -151.5t32 -178zM606 897q-149 0 -247 -91t-111 -243h698q-5 149 -97 241.5t-243 92.5z" />
    <glyph glyph-name="eacute" unicode="&#xe9;" horiz-adv-x="1181" 
d="M555 1141q-32 0 -18 33l110 235q11 25 33 25h90q32 0 18 -33l-112 -236q-8 -24 -31 -24h-90zM1077 553q0 -58 -15 -81t-58 -23h-756q14 -155 118 -252t281 -97q161 0 289 97q18 14 31 -2l34 -48q9 -15 6.5 -23t-14.5 -20q-135 -129 -358 -129q-160 0 -282 72t-185.5 192
t-63.5 267t63 265.5t178.5 187.5t262.5 69q108 0 198 -39.5t148.5 -106t90.5 -151.5t32 -178zM606 897q-149 0 -247 -91t-111 -243h698q-5 149 -97 241.5t-243 92.5z" />
    <glyph glyph-name="ecircumflex" unicode="&#xea;" horiz-adv-x="1181" 
d="M346 1176q-13 0 -17.5 9.5t3.5 18.5l176 213q14 17 33 17h102q19 0 33 -17l176 -213q8 -9 3 -18.5t-17 -9.5h-82q-20 0 -33 16l-131 164l-133 -164q-13 -16 -33 -16h-80zM1077 553q0 -58 -15 -81t-58 -23h-756q14 -155 118 -252t281 -97q161 0 289 97q18 14 31 -2l34 -48
q9 -15 6.5 -23t-14.5 -20q-135 -129 -358 -129q-160 0 -282 72t-185.5 192t-63.5 267t63 265.5t178.5 187.5t262.5 69q108 0 198 -39.5t148.5 -106t90.5 -151.5t32 -178zM606 897q-149 0 -247 -91t-111 -243h698q-5 149 -97 241.5t-243 92.5z" />
    <glyph glyph-name="edieresis" unicode="&#xeb;" horiz-adv-x="1181" 
d="M406 1272q-37 0 -63 25.5t-26 60.5t26 60.5t63 25.5q35 0 61.5 -25.5t26.5 -60.5t-26.5 -60.5t-61.5 -25.5zM776 1272q-35 0 -61.5 25.5t-26.5 60.5t26.5 60.5t61.5 25.5t61.5 -25.5t26.5 -60.5t-26.5 -60.5t-61.5 -25.5zM1077 553q0 -58 -15 -81t-58 -23h-756
q14 -155 118 -252t281 -97q161 0 289 97q18 14 31 -2l34 -48q9 -15 6.5 -23t-14.5 -20q-135 -129 -358 -129q-160 0 -282 72t-185.5 192t-63.5 267t63 265.5t178.5 187.5t262.5 69q108 0 198 -39.5t148.5 -106t90.5 -151.5t32 -178zM606 897q-149 0 -247 -91t-111 -243h698
q-5 149 -97 241.5t-243 92.5z" />
    <glyph glyph-name="igrave" unicode="&#xec;" horiz-adv-x="393" 
d="M20 1434h91q21 0 32 -25l111 -235q14 -33 -18 -33h-89q-21 0 -32 24l-113 236q-14 33 18 33zM150 0q-27 0 -27 29v946q0 29 27 29h94q26 0 26 -29v-946q0 -29 -26 -29h-94z" />
    <glyph glyph-name="iacute" unicode="&#xed;" horiz-adv-x="393" 
d="M377 1434q32 0 18 -33l-112 -236q-8 -24 -31 -24h-90q-33 0 -19 33l111 235q11 25 33 25h90zM150 0q-27 0 -27 29v946q0 29 27 29h94q26 0 26 -29v-946q0 -29 -26 -29h-94z" />
    <glyph glyph-name="icircumflex" unicode="&#xee;" horiz-adv-x="393" 
d="M-47 1176q-13 0 -17.5 9.5t3.5 18.5l176 213q14 17 32 17h103q19 0 33 -17l176 -213q7 -9 2 -18.5t-17 -9.5h-82q-19 0 -32 16l-131 164l-133 -164q-13 -16 -33 -16h-80zM150 0q-27 0 -27 29v946q0 29 27 29h94q26 0 26 -29v-946q0 -29 -26 -29h-94z" />
    <glyph glyph-name="idieresis" unicode="&#xef;" horiz-adv-x="393" 
d="M14 1272q-37 0 -62.5 25.5t-25.5 60.5t25.5 60.5t62.5 25.5q35 0 61.5 -25.5t26.5 -60.5t-26.5 -60.5t-61.5 -25.5zM385 1272q-35 0 -61.5 25.5t-26.5 60.5t26.5 60.5t61.5 25.5t61.5 -25.5t26.5 -60.5t-26.5 -60.5t-61.5 -25.5zM150 0q-27 0 -27 29v946q0 29 27 29h94
q26 0 26 -29v-946q0 -29 -26 -29h-94z" />
    <glyph glyph-name="eth" unicode="&#xf0;" horiz-adv-x="1210" 
d="M1178 1286q32 3 32 -29v-49q0 -29 -28 -32l-54 -9v-1138q0 -29 -26 -29h-88q-27 0 -27 29l-2 166q-57 -104 -156 -162t-231 -58q-218 0 -356 149.5t-138 377.5q0 148 62 268t175 189t257 69q129 0 226.5 -57t156.5 -158v334l-188 -27q-33 -3 -33 29v49q0 30 28 33l193 26
v179q0 28 27 28h94q26 0 26 -28v-156zM618 113q162 0 263.5 106t101.5 279q0 174 -102 283.5t-263 109.5q-162 0 -266 -108.5t-104 -280.5q0 -174 104 -281.5t266 -107.5z" />
    <glyph glyph-name="ntilde" unicode="&#xf1;" horiz-adv-x="1155" 
d="M309 1296q-21 0 -18 25q7 71 54 110t116 39q47 0 88 -21t66.5 -45.5t60 -45.5t69.5 -21q65 0 86 62q6 18 23 18h31q20 0 20 -20q-7 -73 -54 -112.5t-110 -39.5q-49 0 -92 20.5t-68.5 45t-60 45t-69.5 20.5q-68 0 -89 -61q-6 -19 -22 -19h-31zM631 1028q168 0 269 -107.5
t101 -302.5v-589q0 -29 -26 -29h-96q-25 0 -25 29v575q0 134 -68 210.5t-192 76.5q-127 0 -209 -78t-82 -209v-575q0 -29 -27 -29h-94q-26 0 -26 29v946q0 29 26 29h86q29 0 29 -31l6 -129q46 83 128.5 133.5t199.5 50.5z" />
    <glyph glyph-name="ograve" unicode="&#xf2;" horiz-adv-x="1234" 
d="M440 1434h92q23 0 31 -25l111 -235q14 -33 -19 -33h-88q-21 0 -32 24l-113 236q-14 33 18 33zM618 -25q-144 0 -262 69t-185 190t-67 268t67 268t185 189.5t262 68.5q218 0 365 -151t147 -375t-147 -375.5t-365 -151.5zM618 113q159 0 264 110t105 279t-105 279t-264 110
q-160 0 -265 -109.5t-105 -279.5t105 -279.5t265 -109.5z" />
    <glyph glyph-name="oacute" unicode="&#xf3;" horiz-adv-x="1234" 
d="M797 1434q32 0 18 -33l-113 -236q-8 -24 -30 -24h-90q-33 0 -19 33l111 235q11 25 33 25h90zM618 -25q-144 0 -262 69t-185 190t-67 268t67 268t185 189.5t262 68.5q218 0 365 -151t147 -375t-147 -375.5t-365 -151.5zM618 113q159 0 264 110t105 279t-105 279t-264 110
q-160 0 -265 -109.5t-105 -279.5t105 -279.5t265 -109.5z" />
    <glyph glyph-name="ocircumflex" unicode="&#xf4;" horiz-adv-x="1234" 
d="M373 1176q-13 0 -18 9.5t3 18.5l177 213q14 17 32 17h103q18 0 32 -17l177 -213q7 -9 2 -18.5t-17 -9.5h-82q-19 0 -32 16l-132 164l-133 -164q-13 -16 -32 -16h-80zM618 -25q-144 0 -262 69t-185 190t-67 268t67 268t185 189.5t262 68.5q218 0 365 -151t147 -375
t-147 -375.5t-365 -151.5zM618 113q159 0 264 110t105 279t-105 279t-264 110q-160 0 -265 -109.5t-105 -279.5t105 -279.5t265 -109.5z" />
    <glyph glyph-name="otilde" unicode="&#xf5;" horiz-adv-x="1234" 
d="M483 1470q47 0 88.5 -21t66.5 -45.5t60 -45.5t70 -21q65 0 86 62q6 18 23 18h30q21 0 21 -20q-7 -73 -54 -112.5t-110 -39.5q-49 0 -92 20.5t-69 45t-60.5 45t-69.5 20.5q-67 0 -88 -61q-6 -19 -23 -19h-30q-22 0 -19 25q7 71 54 110t116 39zM618 -25q-144 0 -262 69
t-185 190t-67 268t67 268t185 189.5t262 68.5q218 0 365 -151t147 -375t-147 -375.5t-365 -151.5zM618 113q159 0 264 110t105 279t-105 279t-264 110q-160 0 -265 -109.5t-105 -279.5t105 -279.5t265 -109.5z" />
    <glyph glyph-name="odieresis" unicode="&#xf6;" horiz-adv-x="1234" 
d="M434 1272q-37 0 -62.5 25.5t-25.5 60.5t25.5 60.5t62.5 25.5q35 0 61.5 -25.5t26.5 -60.5t-26.5 -60.5t-61.5 -25.5zM805 1272q-35 0 -61.5 25.5t-26.5 60.5t26.5 60.5t61.5 25.5t61.5 -25.5t26.5 -60.5t-26.5 -60.5t-61.5 -25.5zM618 -25q-144 0 -262 69t-185 190
t-67 268t67 268t185 189.5t262 68.5q218 0 365 -151t147 -375t-147 -375.5t-365 -151.5zM618 113q159 0 264 110t105 279t-105 279t-264 110q-160 0 -265 -109.5t-105 -279.5t105 -279.5t265 -109.5z" />
    <glyph glyph-name="divide" unicode="&#xf7;" horiz-adv-x="923" 
d="M463 774q-42 0 -72.5 29t-30.5 71q0 41 31 72t72 31t71.5 -31t30.5 -72q0 -42 -30 -71t-72 -29zM164 518q-14 0 -22.5 9t-8.5 22v65q0 14 8.5 22.5t22.5 8.5h596q14 0 22.5 -8.5t8.5 -22.5v-65q0 -13 -8.5 -22t-22.5 -9h-596zM463 199q-42 0 -72.5 29t-30.5 71
q0 41 31 71.5t72 30.5t71.5 -30.5t30.5 -71.5q0 -42 -30 -71t-72 -29z" />
    <glyph glyph-name="oslash" unicode="&#xf8;" horiz-adv-x="1234" 
d="M877 961q117 -69 185 -189.5t68 -269.5q0 -224 -147 -375.5t-365 -151.5q-87 0 -176 29l-57 -125q-11 -22 -33 -22h-43q-15 0 -20 10t2 27l67 149q-117 69 -185.5 190t-68.5 269q0 147 67 268t185 189.5t262 68.5q90 0 175 -29l55 121q12 23 33 23h45q15 0 20 -10t-2 -27
zM248 502q0 -107 45 -194.5t123 -137.5l319 702q-59 19 -117 19q-160 0 -265 -109.5t-105 -279.5zM618 113q159 0 264 110t105 279q0 107 -45 193.5t-123 138.5l-319 -703q56 -18 118 -18z" />
    <glyph glyph-name="ugrave" unicode="&#xf9;" horiz-adv-x="1157" 
d="M498 1165l-113 236q-14 33 18 33h93q22 0 30 -25l111 -235q14 -33 -19 -33h-88q-21 0 -32 24zM975 1004q26 0 26 -29v-946q0 -29 -26 -29h-88q-29 0 -29 31l-4 133q-47 -85 -129 -137t-201 -52q-167 0 -267.5 107.5t-100.5 302.5v590q0 29 26 29h94q27 0 27 -29v-576
q0 -135 67 -210.5t191 -75.5q127 0 210 77.5t83 208.5v576q0 29 25 29h96z" />
    <glyph glyph-name="uacute" unicode="&#xfa;" horiz-adv-x="1157" 
d="M545 1141q-33 0 -19 33l111 235q11 25 33 25h90q32 0 18 -33l-112 -236q-8 -24 -31 -24h-90zM975 1004q26 0 26 -29v-946q0 -29 -26 -29h-88q-29 0 -29 31l-4 133q-47 -85 -129 -137t-201 -52q-167 0 -267.5 107.5t-100.5 302.5v590q0 29 26 29h94q27 0 27 -29v-576
q0 -135 67 -210.5t191 -75.5q127 0 210 77.5t83 208.5v576q0 29 25 29h96z" />
    <glyph glyph-name="ucircumflex" unicode="&#xfb;" horiz-adv-x="1157" 
d="M336 1176q-13 0 -17.5 9.5t3.5 18.5l176 213q14 17 32 17h103q19 0 33 -17l176 -213q7 -9 2 -18.5t-17 -9.5h-82q-19 0 -32 16l-131 164l-133 -164q-13 -16 -33 -16h-80zM975 1004q26 0 26 -29v-946q0 -29 -26 -29h-88q-29 0 -29 31l-4 133q-47 -85 -129 -137t-201 -52
q-167 0 -267.5 107.5t-100.5 302.5v590q0 29 26 29h94q27 0 27 -29v-576q0 -135 67 -210.5t191 -75.5q127 0 210 77.5t83 208.5v576q0 29 25 29h96z" />
    <glyph glyph-name="udieresis" unicode="&#xfc;" horiz-adv-x="1157" 
d="M397 1272q-37 0 -62.5 25.5t-25.5 60.5t25.5 60.5t62.5 25.5q35 0 61.5 -25.5t26.5 -60.5t-26.5 -60.5t-61.5 -25.5zM768 1272q-35 0 -61.5 25.5t-26.5 60.5t26.5 60.5t61.5 25.5t61.5 -25.5t26.5 -60.5t-26.5 -60.5t-61.5 -25.5zM975 1004q26 0 26 -29v-946
q0 -29 -26 -29h-88q-29 0 -29 31l-4 133q-47 -85 -129 -137t-201 -52q-167 0 -267.5 107.5t-100.5 302.5v590q0 29 26 29h94q27 0 27 -29v-576q0 -135 67 -210.5t191 -75.5q127 0 210 77.5t83 208.5v576q0 29 25 29h96z" />
    <glyph glyph-name="yacute" unicode="&#xfd;" horiz-adv-x="1116" 
d="M737 1434q33 0 19 -33l-113 -236q-8 -24 -31 -24h-90q-32 0 -18 33l110 235q11 25 33 25h90zM362 -389q-15 0 -20.5 8.5t0.5 22.5l141 354l-385 973q-12 35 23 35h94q24 0 33 -25l309 -815l311 815q9 25 33 25h94q35 0 23 -35l-529 -1334q-9 -24 -34 -24h-93z" />
    <glyph glyph-name="thorn" unicode="&#xfe;" 
d="M684 1028q219 0 357.5 -149.5t138.5 -376.5q0 -228 -138.5 -377.5t-357.5 -149.5q-129 0 -225.5 55t-155.5 154v-544q0 -29 -27 -29h-94q-26 0 -26 29v1796q0 28 26 28h94q27 0 27 -28v-621q59 101 155.5 157t225.5 56zM664 113q164 0 268 107.5t104 281.5
q0 173 -104.5 281t-267.5 108q-160 0 -261.5 -109.5t-101.5 -283.5q0 -172 101 -278.5t262 -106.5z" />
    <glyph glyph-name="ydieresis" unicode="&#xff;" horiz-adv-x="1116" 
d="M375 1272q-37 0 -62.5 25.5t-25.5 60.5t25.5 60.5t62.5 25.5q35 0 61.5 -25.5t26.5 -60.5t-26.5 -60.5t-61.5 -25.5zM745 1272q-35 0 -61.5 25.5t-26.5 60.5t26.5 60.5t61.5 25.5q36 0 62.5 -25.5t26.5 -60.5t-26.5 -60.5t-62.5 -25.5zM362 -389q-15 0 -20.5 8.5
t0.5 22.5l141 354l-385 973q-12 35 23 35h94q24 0 33 -25l309 -815l311 815q9 25 33 25h94q35 0 23 -35l-529 -1334q-9 -24 -34 -24h-93z" />
    <glyph glyph-name="dotlessi" unicode="&#x131;" horiz-adv-x="393" 
d="M150 0q-27 0 -27 29v946q0 29 27 29h94q26 0 26 -29v-946q0 -29 -26 -29h-94z" />
    <glyph glyph-name="OE" unicode="&#x152;" horiz-adv-x="2347" 
d="M2165 137q28 0 28 -28v-80q0 -29 -28 -29h-688q-29 0 -29 29v225q-102 -131 -253 -206t-327 -75q-152 0 -288 57.5t-233.5 156t-154.5 235t-57 289.5t57 290.5t154.5 235.5t233.5 155.5t288 57.5q176 0 327 -75t253 -206v236q0 29 29 29h686q28 0 28 -29v-80
q0 -29 -28 -29h-561v-487h532q29 0 29 -29v-80q0 -28 -29 -28h-532v-535h563zM868 123q162 0 294.5 76.5t208 211.5t75.5 300q0 125 -44.5 234.5t-121 187t-184 122.5t-228.5 45q-122 0 -229 -45t-183.5 -122.5t-120.5 -187t-44 -234.5q0 -252 165 -420t412 -168z" />
    <glyph glyph-name="oe" unicode="&#x153;" horiz-adv-x="2066" 
d="M1964 553q0 -57 -16 -80.5t-60 -23.5h-755q14 -155 118 -252t281 -97q163 0 291 97q17 14 30 -2l35 -48q9 -15 6.5 -23t-14.5 -20q-135 -129 -358 -129q-156 0 -275.5 67.5t-185.5 184.5q-67 -117 -183.5 -184.5t-259.5 -67.5q-144 0 -262 69t-185 190t-67 268t67 268
t185 189.5t262 68.5q140 0 256 -67t183 -181q65 115 178 181.5t258 66.5q109 0 199.5 -39.5t149 -106t90.5 -151.5t32 -178zM1493 897q-151 0 -248.5 -91t-111.5 -243h698q-5 149 -97 241.5t-241 92.5zM618 113q159 0 264 110t105 279t-105 279t-264 110q-160 0 -265 -109.5
t-105 -279.5t105 -279.5t265 -109.5z" />
    <glyph glyph-name="circumflex" unicode="&#x2c6;" horiz-adv-x="589" 
d="M49 1176q-13 0 -17.5 9.5t3.5 18.5l176 213q14 17 33 17h102q19 0 33 -17l176 -213q7 -9 2.5 -18.5t-16.5 -9.5h-82q-20 0 -33 16l-131 164l-133 -164q-13 -16 -33 -16h-80z" />
    <glyph glyph-name="ring" unicode="&#x2da;" horiz-adv-x="389" 
d="M195 1470q69 0 116 -45t47 -114q0 -68 -47 -114t-116 -46t-116.5 46.5t-47.5 113.5q0 69 47 114t117 45zM195 1253q25 0 41 16.5t16 41.5t-16 41t-41 16t-41.5 -16t-16.5 -41t16.5 -41.5t41.5 -16.5z" />
    <glyph glyph-name="tilde" unicode="&#x2dc;" horiz-adv-x="675" 
d="M201 1470q47 0 88 -21t66.5 -45.5t60 -45.5t69.5 -21q65 0 86 62q6 18 23 18h31q20 0 20 -20q-7 -73 -54 -112.5t-110 -39.5q-49 0 -92 20.5t-69 45t-60.5 45t-69.5 20.5q-67 0 -88 -61q-6 -19 -22 -19h-31q-21 0 -18 25q7 71 54 110t116 39z" />
    <glyph glyph-name="endash" unicode="&#x2013;" horiz-adv-x="1271" 
d="M1130 643q27 0 27 -27v-75q0 -27 -27 -27h-991q-26 0 -26 27v75q0 27 26 27h991z" />
    <glyph glyph-name="emdash" unicode="&#x2014;" horiz-adv-x="1394" 
d="M1253 643q27 0 27 -27v-75q0 -27 -27 -27h-1114q-26 0 -26 27v75q0 27 26 27h1114z" />
    <glyph glyph-name="quoteleft" unicode="&#x2018;" horiz-adv-x="397" 
d="M326 1464v-55q-79 -1 -123 -69q-31 -47 -20 -82q6 -20 26 -19q51 1 83 -28.5t32 -75.5q0 -48 -34 -79.5t-81 -31.5q-57 0 -97 48.5t-40 125.5q0 107 72 187t182 79z" />
    <glyph glyph-name="quoteright" unicode="&#x2019;" horiz-adv-x="397" 
d="M72 1030v55q79 1 122 69q31 47 20 82q-6 20 -26 19q-50 -1 -82 29t-32 76q0 48 33.5 79t80.5 31q58 0 98 -48t40 -126q0 -107 -72 -187t-182 -79z" />
    <glyph glyph-name="quotesinglbase" unicode="&#x201a;" horiz-adv-x="438" 
d="M92 -256v55q79 1 123 69q31 47 20 82q-6 20 -26 19q-50 -1 -82.5 29t-32.5 76q0 48 34 79t81 31q58 0 97.5 -48t39.5 -126q0 -107 -72 -187t-182 -79z" />
    <glyph glyph-name="quotedblleft" unicode="&#x201c;" horiz-adv-x="706" 
d="M326 1464v-55q-79 -1 -123 -69q-31 -47 -20 -82q6 -20 26 -19q51 1 83 -28.5t32 -75.5q0 -48 -34 -79.5t-81 -31.5q-58 0 -97.5 48t-39.5 126q0 107 72 187t182 79zM635 1464v-55q-79 -1 -123 -69q-31 -47 -20 -82q6 -20 26 -19q52 1 83.5 -28t31.5 -76q0 -49 -33.5 -80
t-81.5 -31q-57 0 -97 48.5t-40 125.5q0 107 72 187t182 79z" />
    <glyph glyph-name="quotedblright" unicode="&#x201d;" horiz-adv-x="706" 
d="M72 1030v55q79 1 122 69q31 47 20 82q-6 20 -26 19q-50 -1 -82 29t-32 76q0 48 33.5 79t80.5 31q58 0 98 -48t40 -126q0 -107 -72 -187t-182 -79zM381 1030v55q79 1 123 69q31 47 20 82q-6 20 -26 19q-50 -1 -81.5 29t-31.5 76q0 48 33 79t80 31q58 0 97.5 -48t39.5 -126
q0 -107 -72 -187t-182 -79z" />
    <glyph glyph-name="quotedblbase" unicode="&#x201e;" horiz-adv-x="747" 
d="M92 -256v55q79 1 123 69q31 47 20 82q-6 20 -26 19q-50 -1 -82.5 29t-32.5 76q0 48 34 79t81 31q58 0 97.5 -48t39.5 -126q0 -107 -72 -187t-182 -79zM401 -256v55q79 1 123 69q31 47 20 82q-6 20 -26 19q-50 -1 -81 28.5t-31 76.5q0 48 32.5 79t79.5 31q58 0 97.5 -48
t39.5 -126q0 -107 -72 -187t-182 -79z" />
    <glyph glyph-name="dagger" unicode="&#x2020;" horiz-adv-x="882" 
d="M721 1190q29 0 29 -29v-69q0 -29 -29 -29h-215v-217q0 -29 -29 -29h-69q-29 0 -29 29v217h-217q-29 0 -29 29v69q0 29 29 29h217v215q0 29 29 29h69q29 0 29 -29v-215h215z" />
    <glyph glyph-name="daggerdbl" unicode="&#x2021;" horiz-adv-x="882" 
d="M721 1190q29 0 29 -29v-69q0 -29 -29 -29h-215v-217q0 -29 -29 -29h-69q-29 0 -29 29v217h-217q-29 0 -29 29v69q0 29 29 29h217v215q0 29 29 29h69q29 0 29 -29v-215h215zM721 477q29 0 29 -28v-70q0 -29 -29 -29h-215v-217q0 -29 -29 -29h-69q-29 0 -29 29v217h-217
q-29 0 -29 29v70q0 28 29 28h217v215q0 29 29 29h69q29 0 29 -29v-215h215z" />
    <glyph glyph-name="bullet" unicode="&#x2022;" horiz-adv-x="540" 
d="M270 428q-57 0 -97 39t-40 96t40 96t97 39t97.5 -39t40.5 -96t-40.5 -96t-97.5 -39z" />
    <glyph glyph-name="ellipsis" unicode="&#x2026;" horiz-adv-x="1112" 
d="M199 -27q-43 0 -75 31t-32 76q0 42 32 73t75 31t73.5 -30.5t30.5 -73.5q0 -45 -30.5 -76t-73.5 -31zM555 -27q-43 0 -73.5 31t-30.5 76q0 43 30.5 73.5t73.5 30.5q44 0 75.5 -30.5t31.5 -73.5q0 -45 -31 -76t-76 -31zM913 -27q-43 0 -74.5 31t-31.5 76q0 43 31.5 73.5
t74.5 30.5t75 -31t32 -73q0 -45 -32 -76t-75 -31z" />
    <glyph glyph-name="perthousand" unicode="&#x2030;" horiz-adv-x="2129" 
d="M383 889q-116 0 -198.5 80t-82.5 196q0 118 82.5 198.5t198.5 80.5t198.5 -80.5t82.5 -198.5q0 -116 -82.5 -196t-198.5 -80zM305 8l-49 33q-21 16 -6 39l899 1335q16 26 37 10l49 -32q21 -16 6 -39l-899 -1336q-16 -26 -37 -10zM383 993q73 0 122.5 49t49.5 123
q0 76 -49.5 125t-122.5 49t-122.5 -49t-49.5 -125q0 -74 49.5 -123t122.5 -49zM1108 -10q-116 0 -198.5 80t-82.5 196q0 118 82.5 198.5t198.5 80.5t198.5 -80.5t82.5 -198.5q0 -116 -82.5 -196t-198.5 -80zM1747 -10q-116 0 -198.5 80t-82.5 196q0 118 82.5 198.5
t198.5 80.5q115 0 198 -81t83 -198q0 -116 -83 -196t-198 -80zM1108 94q73 0 122.5 49t49.5 123q0 76 -49.5 125t-122.5 49t-122.5 -49t-49.5 -125q0 -74 49.5 -123t122.5 -49zM1747 94q71 0 120.5 49t49.5 123q0 76 -49.5 125t-120.5 49q-73 0 -122.5 -49t-49.5 -125
q0 -74 49.5 -123t122.5 -49z" />
    <glyph glyph-name="guilsinglleft" unicode="&#x2039;" horiz-adv-x="473" 
d="M371 326q0 -12 -10 -16.5t-19 1.5l-223 178q-17 14 -17 33v101q0 16 17 30l223 178q9 8 19 3.5t10 -17.5v-80q0 -18 -17 -32l-170 -134l170 -131q17 -14 17 -32v-82z" />
    <glyph glyph-name="guilsinglright" unicode="&#x203a;" horiz-adv-x="473" 
d="M102 326v82q0 18 17 32l170 131l-170 134q-17 14 -17 32v80q0 13 10 17.5t19 -3.5l223 -178q17 -14 17 -30v-101q0 -19 -17 -33l-223 -178q-9 -6 -19 -1.5t-10 16.5z" />
    <glyph glyph-name="fraction" unicode="&#x2044;" horiz-adv-x="303" 
d="M631 1434l-875 -1434h-84l875 1434h84z" />
    <glyph glyph-name="Euro" unicode="&#x20ac;" horiz-adv-x="1558" 
d="M1423 207q21 -21 -6 -47q-207 -187 -483 -187q-271 0 -465 161t-246 415h-112q-29 0 -29 26v54q0 26 29 26h98q-2 18 -2 56v41h-96q-29 0 -29 26v53q0 27 29 27h108q24 128 86.5 237t154.5 187.5t214.5 123t259.5 44.5q276 0 483 -184q25 -25 6 -49l-57 -64
q-20 -20 -45 0q-166 147 -383 147q-209 0 -361.5 -122t-197.5 -320h332q28 0 28 -27v-53q0 -26 -28 -26h-346q-3 -21 -3 -41q0 -29 3 -56h346q28 0 28 -26v-54q0 -26 -28 -26h-328q48 -192 199.5 -309t355.5 -117q217 0 383 147q24 21 43 2z" />
    <glyph glyph-name="trademark" unicode="&#x2122;" horiz-adv-x="1116" 
d="M285 1065q-11 0 -11 10v299h-131q-10 0 -10 10v39q0 11 10 11h330q10 0 10 -11v-39q0 -10 -10 -10h-131v-299q0 -10 -10 -10h-47zM561 1065q-10 0 -10 10v348q0 11 10 11h53q8 0 13 -9l139 -282l139 282q5 9 13 9h55q10 0 10 -11v-348q0 -10 -10 -10h-47q-11 0 -11 10
v240l-116 -242q-4 -8 -13 -8h-38q-9 0 -13 8l-119 242v-240q0 -10 -10 -10h-45z" />
    <glyph glyph-name="minus" unicode="&#x2212;" horiz-adv-x="923" 
d="M162 518q-29 0 -29 29v69q0 29 29 29h600q29 0 29 -29v-69q0 -29 -29 -29h-600z" />
    <glyph glyph-name="uniFEFF" unicode="&#xfeff;" horiz-adv-x="409" 
 />
    </font>
</defs>
</svg>
